<?xml version="1.0" standalone="no"?>
<!DOCTYPE svg PUBLIC "-//W3C//DTD SVG 1.1//EN" "http://www.w3.org/Graphics/SVG/1.1/DTD/svg11.dtd">
<svg xmlns="http://www.w3.org/2000/svg">
<defs >
<font id="Caveat" horiz-adv-x="445" ><font-face
    font-family="Caveat"
    units-per-em="1000"
    panose-1="0 0 0 0 0 0 0 0 0 0"
    ascent="960"
    descent="-300"
    alphabetic="0" />
<glyph unicode=" " horiz-adv-x="242" />
<glyph unicode="!" horiz-adv-x="210" d="M199 161Q171 156 155 184T157 285Q163 297 167 308T171 327Q175 340 181 357T195 390T205 411Q209 411 213 418T218 432Q218 440 221 450T229 464Q229 469 233 475T237 485Q237 489 239 492T242 499Q251 515 265 546T294
613T319 675T329 708Q331 716 335 723T347 728Q351 731 359 731T371 732Q371 732 380 728T396 716Q404 709 405 697T406 673Q405 654 392 630T363 577Q353 558 344 541T334 520Q334 516 330 508T321 488Q315 478 310 464T300 439T296 424Q295 420 294 416T288 408Q284
408 284 403T283 397Q283 393 279 379T264 344Q245 291 237 260T227 206Q225 182 216 174T199 161ZM146 6Q125 -2 111 -2T80 12Q60 32 66 52T102 92Q122 105 131 105T160 98Q194 77 190 52T146 6Z" />
<glyph unicode="&quot;" horiz-adv-x="237" d="M200 431Q184 428 175 430T158 439Q156 450 161 461T171 480Q183 500 198 527T219 570Q221 581 225 598T230 635Q230 640 232 651T239 671T249 677Q258 673 272 666T296 650T305 630Q303 606 295 578T280 530Q274
508 258 485T224 441Q225 437 218 436T200 431ZM331 431Q316 428 307 430T290 439Q287 450 292 461T302 480Q314 500 329 527T350 570Q352 581 356 598T361 635Q361 640 363 651T370 671T380 677Q389 673 403 666T427 650T436 630Q434 606 426 578T411 530Q405
508 389 485T355 441Q356 437 349 436T331 431Z" />
<glyph unicode="#" horiz-adv-x="559" d="M402 -148Q383 -153 369 -138T348 -94T350 -28Q355 -16 358 -5T361 14Q363 22 371 49T390 113T413 184T433 244T444 272Q448 272 451 279T454 293Q454 301 457 311T465 325Q465 330 467 336T470 347Q470 351 472 355T475
363Q481 374 493 404T522 476T556 562T588 647T612 713T621 743Q621 751 632 759T651 768Q654 771 658 772T667 773Q667 773 671 769T683 757Q691 750 700 737T709 711Q709 698 706 688T694 659T666 600Q663 592 654 572T635 527T614 479T597 439T590 421Q590 417
587 409T579 389Q575 381 568 366T554 333T541 303T536 288Q536 284 536 280T531 272Q527 272 527 267T526 261Q526 251 510 208Q503 186 493 151T472 77T450 0T434 -66T427 -105Q427 -129 419 -136T402 -148ZM140 173Q134 173 125 173T105 178Q90 178 81 184T68
197Q57 212 70 219T120 231Q131 234 165 236T245 239T343 242T442 243T525 244T574 245Q600 245 609 241T629 226Q644 211 637 195T606 183Q599 182 584 181T550 178Q546 178 518 178T446 177T354 176T260 175T182 174T140 173ZM154 -148Q135 -153 121 -138T100
-94T102 -28Q107 -16 110 -5T113 14Q115 22 123 49T142 113T165 184T185 244T196 272Q200 272 203 279T206 293Q206 301 209 311T217 325Q217 330 219 336T222 347Q222 351 224 355T227 363Q233 374 245 404T274 476T308 562T340 647T364 713T373 743Q373 751 384
759T403 768Q406 771 410 772T419 773Q419 773 423 769T435 757Q443 750 452 737T461 711Q461 698 458 688T446 659T418 600Q415 592 406 572T387 527T366 479T349 439T342 421Q342 417 339 409T331 389Q327 381 320 366T306 333T293 303T288 288Q288 284 288 280T283
272Q279 272 279 267T278 261Q278 251 262 208Q255 186 245 151T224 77T202 0T186 -66T179 -105Q179 -129 171 -136T154 -148ZM201 374Q195 374 186 374T166 379Q151 379 143 384T130 397Q119 412 131 420T181 432Q192 435 226 437T307 440T405 443T504 444T587
445T636 446Q662 446 671 442T691 427Q706 412 698 396T667 384Q660 383 645 382T612 379Q608 379 580 379T508 378T415 377T321 376T243 375T201 374Z" />
<glyph unicode="$" horiz-adv-x="450" d="M170 -124Q159 -124 153 -116T146 -93Q146 -78 150 -58T161 -11Q165 -6 167 -1T172 9T175 18T177 26T178 33Q181 41 192 67T218 127T247 194T273 251T286 278Q290 278 295 285T301 299Q301 306 302 312T307 323T313 332T319
340T323 348T325 357Q325 352 338 376T371 440T413 528T456 620T490 695T503 730Q508 743 518 743Q519 743 524 744T533 745Q533 745 535 744T546 738Q548 735 551 729T557 715T560 696Q559 687 557 681T552 668T542 651T527 626T505 586Q495 568 480 542T450 488T424
440T408 410Q407 407 405 404T402 397T399 391T395 384Q386 367 374 346T353 307T342 283Q341 279 340 275T336 268Q332 268 331 264T327 248T308 214Q299 192 286 159T257 88T228 16T205 -45T194 -83Q193 -110 189 -117T170 -124ZM164 33Q148 33 136 35T120 40Q107
40 89 53T58 86T45 122Q45 139 57 150T86 163T122 156Q106 129 116 116T179 102Q193 102 201 102T221 104Q234 105 245 106T267 110Q316 121 334 138T356 168Q356 183 359 187T363 197Q363 206 364 214T363 234T345 263T299 307Q292 319 282 333T258 355Q254 360
250 368T243 378Q245 377 236 388T227 421Q227 444 237 469T272 513Q280 523 296 535T328 557T347 567Q355 567 370 575T422 587Q443 592 453 594T472 597Q475 597 483 597T523 585Q552 574 562 559T570 531T559 508T541 499Q533 499 521 505T495 517T462 523Q428
523 402 518T354 489Q328 473 317 456T306 427Q308 423 311 413T323 393Q354 359 370 343T393 320T401 313T402 307Q403 307 407 302T417 289Q423 281 427 274T432 264Q432 266 438 255T449 223T455 176Q455 168 446 155T424 128T400 105Q386 94 370 84T335 65T295
51Q281 47 266 44T234 38T200 34T164 33Z" />
<glyph unicode="%" horiz-adv-x="600" d="M140 -91Q121 -89 110 -76T102 -39T132 22Q140 30 146 38T155 52Q160 58 176 78T215 123T260 174T297 216T315 237Q319 236 324 240T331 252Q334 260 340 266T352 273Q354 278 358 282T364 290Q365 293 368 295T373 302Q382
309 403 331T454 383T513 447T570 509T614 557T632 580Q636 593 652 588Q659 592 668 588Q668 588 676 578T690 559Q696 550 696 541T692 524Q688 513 682 506T661 485T616 445Q609 438 591 419T551 379T515 341T500 322Q497 320 492 315T479 300Q471 293 454 277T422
246T407 230Q405 227 403 224T395 219Q393 220 391 217T388 213Q388 209 379 198T355 173Q339 154 312 121T257 53T207 -10T181 -50Q174 -69 161 -79T140 -91ZM479 36Q494 53 503 68T521 109Q524 120 524 138T520 159Q512 163 501 162T477 148Q456 132 442 106T412
48Q402 25 407 11T432 0T479 36ZM396 -81Q386 -81 379 -77T364 -65Q348 -49 338 -30T331 4Q333 11 333 16T332 22Q328 27 330 28T333 32Q338 32 336 42Q335 48 343 70T364 113Q369 121 380 140T405 178T429 205Q450 223 468 231T505 244Q524 249 531 249T550 235Q569
228 586 208T606 165Q608 140 602 109T564 30Q543 1 525 -17T484 -49Q467 -60 441 -70T396 -81ZM333 408Q348 425 358 440T375 481Q379 492 379 510T374 531Q367 535 356 534T332 520Q310 504 296 478T266 420Q257 397 262 383T286 372T333 408ZM250 292Q240 292
233 296T218 308Q202 324 192 343T185 376Q187 383 187 388T186 394Q182 399 184 400T187 404Q192 404 190 414Q189 420 197 442T218 485Q223 493 234 512T259 551T283 578Q304 596 322 604T359 616Q378 621 385 621T404 607Q423 600 440 581T460 538Q462 513 456
482T418 403Q397 374 379 356T338 323Q321 312 295 303T250 292Z" />
<glyph unicode="&amp;" horiz-adv-x="564" d="M667 -54Q668 -66 654 -70T617 -74T571 -66T533 -50Q514 -45 485 -13T417 65Q377 43 352 30T307 8T258 -9Q192 -15 137 4Q129 7 114 16T85 35T65 50Q60 53 58 68T55 100T55 119Q58 128 72 150T109 203T158 264T211
321Q187 356 178 390T178 463T216 553Q226 569 242 588T276 624T307 652T321 660Q325 653 329 655T337 657Q341 659 354 659T385 656T415 649Q451 645 465 641T492 623Q507 612 520 596T541 565T550 540Q550 527 530 500T475 443Q462 427 449 415T435 402Q435 398
430 391T417 381Q406 371 386 353T350 320T333 302Q332 300 340 287T361 255T387 220T412 191T427 179Q460 211 495 241T568 306Q593 332 606 340T627 345T642 334Q655 332 656 317T653 287T648 271Q635 254 613 233T567 191T521 149T484 114Q484 114 496 100T521
74Q554 40 572 27T613 5Q644 -5 655 -18T667 -54ZM186 77Q216 68 237 70T284 87T347 127L366 141L341 170Q334 178 325 192T302 223Q287 237 283 245T278 253Q275 253 265 243T243 220T225 196Q202 178 190 161T163 120Q156 104 158 97T168 87T186 77ZM280 377Q291
389 311 404T355 437T398 473T429 510T435 546Q433 550 424 555T403 564T379 567Q359 569 342 553T302 504Q277 467 269 437T280 377Z" />
<glyph unicode="&apos;" horiz-adv-x="117" d="M198 431Q182 428 173 430T156 439Q153 450 158 461T168 480Q180 500 195 527T216 570Q218 581 222 598T227 635Q227 640 229 651T237 671T247 677Q256 673 270 666T294 650T303 630Q301 606 292 578T277 530Q271
508 255 485T222 441Q223 437 216 436T198 431Z" />
<glyph unicode="(" horiz-adv-x="330" d="M284 -138Q236 -131 203 -96T156 -17Q137 25 138 92T158 230Q163 249 167 269T172 296Q175 306 185 329T208 381T233 440T255 493Q266 518 287 552T332 620T375 679T403 710Q408 715 417 723T433 732Q437 743 449 750T470
757Q493 769 519 764T553 729Q556 715 554 711T531 698Q521 694 506 687T484 671Q475 660 464 649T447 634Q429 627 429 618Q429 618 421 601T393 560Q381 541 365 513T340 471Q331 455 326 445T310 423Q310 420 307 409T295 384Q289 362 271 325Q264 309 255 283T239
233T232 199Q230 199 229 194T225 170T216 110Q215 65 218 36T233 -13T262 -54Q273 -64 284 -69T310 -75L344 -96Q338 -119 320 -129T284 -138Z" />
<glyph unicode=")" horiz-adv-x="330" d="M72 -135Q53 -130 35 -114T16 -82Q17 -79 17 -70T21 -54Q21 -54 27 -57T50 -56Q70 -57 80 -52T105 -30Q116 -15 130 1T150 31Q166 42 173 51T186 71Q186 76 189 89T204 122Q215 147 225 164T235 187Q235 187 238 194T240
211Q246 214 250 224T254 246Q254 249 263 269T273 311Q284 347 289 375T298 438T304 525Q306 570 307 592T307 627T297 651Q287 683 280 683Q277 683 275 695T277 721Q276 725 291 730T316 734Q323 734 331 729T343 719Q347 723 355 706T374 660Q380 646 383 637T387
616T387 584T384 527Q384 492 380 451T369 370T356 298Q349 272 337 236T311 162T284 96T263 55Q265 55 258 43T238 13T212 -25T190 -59Q175 -80 152 -99T108 -128T72 -135Z" />
<glyph unicode="*" horiz-adv-x="363" d="M414 392Q404 385 390 398T366 429Q363 436 359 449T348 479Q347 492 347 504T346 516Q345 517 321 496T252 430Q224 404 215 399T200 395Q193 396 187 400T181 406Q180 409 180 427T183 452Q188 458 203 474T237 510T270
544T289 562Q297 570 297 573T289 583Q285 588 283 590T284 593Q284 593 284 596T279 600Q276 605 275 610T273 617Q273 622 269 632T265 642Q261 645 262 653T268 671T274 682Q274 682 276 682T283 677Q287 677 299 663T318 638Q326 622 329 622T339 622Q339 622
346 635T356 667Q370 686 376 696T387 713Q389 719 393 724T397 729Q397 729 399 734T405 740V740V740Q412 748 422 753T434 756Q438 751 442 748T449 736L467 721L454 704Q432 671 419 644T407 616Q407 616 416 620T436 626Q447 631 453 633T461 636Q471 636 485
645Q500 650 509 645Q517 638 523 622T529 601Q528 600 511 588T467 567Q442 560 423 553T402 541Q390 541 402 524Q404 518 404 513T405 497Q410 478 412 466T416 453Q420 453 420 459Q420 463 429 463Q432 463 437 457T447 443T450 434Q450 434 450 431T450 428Q454
427 446 418T427 401T414 392Z" />
<glyph unicode="+" horiz-adv-x="446" d="M170 172Q164 172 155 172T135 177Q120 177 112 183T99 197Q88 212 100 220T150 233Q167 237 200 239T273 243T347 246T402 247Q428 247 448 242T480 226Q495 211 487 195T456 182Q451 182 437 181T407 179T378 177Q372
177 345 176T283 174T216 173T170 172ZM304 16Q289 5 281 17T268 67Q264 84 262 117T258 190T255 264T254 319Q254 345 259 365T274 397Q289 412 306 404T319 373Q320 368 320 354T322 324T324 295Q324 289 325 262T327 200T328 133T329 87Q329 81 329 72T324 52Q324
37 318 29T304 16Z" />
<glyph unicode="," horiz-adv-x="198" d="M55 -86Q44 -86 37 -81T25 -69Q25 -62 29 -57T40 -45Q51 -35 61 -21T79 9T93 33Q97 44 101 59T109 92Q109 100 109 106T114 117Q122 124 133 129T156 126T174 78Q178 56 174 38T157 -6Q155 -13 143 -29T118 -58T102 -72Q98
-72 95 -74T87 -81Q83 -85 75 -85T55 -86Z" />
<glyph unicode="-" horiz-adv-x="326" d="M170 172Q164 172 155 172T135 177Q120 177 112 183T99 197Q88 212 100 220T150 233Q184 241 217 244T290 247Q316 247 332 242T360 226Q375 211 367 195T336 182Q329 181 307 180T266 177Q255 176 227 174T170 172Z" />
<glyph unicode="." horiz-adv-x="198" d="M162 52Q141 45 127 45T96 58Q76 78 82 98T118 139Q138 151 147 151T176 144Q210 123 206 98T162 52Z" />
<glyph unicode="/" horiz-adv-x="330" d="M79 -115Q49 -116 36 -85T50 14Q56 25 61 36T68 54Q71 61 81 81T106 131T137 191T168 249T193 295T205 316Q210 315 214 321T219 335Q221 344 226 353T236 364Q237 369 240 375T244 385Q245 389 248 392T251 400Q259 410
275 437T313 500T356 576T397 651T428 709T441 737Q442 752 460 749Q467 754 476 752Q476 752 486 742T504 721Q512 713 512 704T508 684Q506 671 502 661T485 634T447 581Q441 572 429 551T403 507T380 467T371 448Q370 444 365 437T354 417Q348 410 339 396T319
366T302 339T294 325Q293 322 292 318T285 311Q282 312 280 307T278 301Q280 293 254 251Q244 230 227 196T191 123T153 47T123 -18T109 -57Q105 -80 96 -96T79 -115Z" />
<glyph unicode="0" horiz-adv-x="450" d="M293 3Q286 3 268 8T230 20T199 37Q165 66 150 101T133 174T135 244Q146 308 181 371T265 477Q291 500 317 516T373 539Q384 542 404 542T432 543Q452 543 476 535T519 515T537 493Q537 486 536 479T527 476H517L527 446Q531
438 534 425T537 400Q537 390 535 371T528 329T519 288T510 260Q507 254 507 249T506 239Q502 231 493 211T480 183Q476 179 474 176T475 169Q475 166 470 156T460 136T451 127Q451 127 449 127T446 123Q446 119 433 102T401 67Q391 57 369 42T326 15T293 3ZM291
99Q302 99 312 102T329 113Q347 125 363 145T391 191Q402 206 408 222T429 279Q437 290 440 306T443 333Q443 344 443 363T448 395Q448 421 447 425T439 438Q435 441 429 444T415 447Q408 447 397 444T377 435Q370 431 362 434T353 442Q353 456 340 441T304 398Q286
380 274 362T261 339Q261 335 258 329T252 315Q247 308 240 292T227 261T218 237Q218 233 218 216T218 183Q218 166 219 158T222 145T230 130Q234 123 242 114T254 100Q265 90 268 92T291 99Z" />
<glyph unicode="1" horiz-adv-x="450" d="M363 -18Q360 -20 349 -19T325 -14T305 -3Q301 1 297 6T293 26T300 71Q304 91 310 113T321 151T326 167Q331 169 340 197T362 265Q366 279 376 312T396 376Q405 405 413 421T421 437Q421 437 409 430T378 411T338 383Q321
373 300 356T260 327Q233 306 224 300T205 299Q192 310 181 331T175 363Q177 364 188 372T215 391T242 411T260 423Q263 423 271 430T288 443Q293 449 323 470T388 517Q425 540 454 554T487 567Q490 567 501 560T524 544T536 529Q542 522 530 497Q526 488 517 465T498
411T478 351T462 300Q454 269 448 252T436 220T423 177Q416 161 409 137T395 89T386 50Q378 28 373 7T363 -18Z" />
<glyph unicode="2" horiz-adv-x="450" d="M162 8Q158 10 149 19T130 39T118 57Q115 62 118 75T126 88Q129 86 134 95T144 114T149 127Q150 131 154 133T163 139Q168 147 176 155T190 170Q198 180 219 200T260 241Q281 264 297 281T314 306Q314 306 317 309T326
316Q331 319 339 326T354 339Q356 347 363 357T381 378Q389 390 396 404T405 426Q408 437 403 439T376 449Q352 457 331 452T275 422Q261 419 250 414T230 410Q226 412 221 419T210 432L200 475L231 492Q272 518 309 531T375 536Q386 536 395 534T404 531Q412 532
427 523T458 500T480 472Q496 448 492 414T463 343Q458 337 441 318T403 276T364 234T341 211Q334 208 318 192T283 157T252 123T241 108Q240 104 251 108T272 116Q287 121 307 125T349 133T385 137T404 135Q406 130 407 131T409 133Q411 140 434 137T477 128Q488
125 494 120T501 111Q501 111 503 107T512 95Q528 82 513 67T457 59Q431 59 414 56Q410 54 397 54T372 53Q354 55 336 52T293 40Q284 37 265 31T224 19T185 10T162 8Z" />
<glyph unicode="3" horiz-adv-x="450" d="M244 1Q219 1 196 10T158 33T145 58Q146 74 156 83T188 89Q222 82 257 84T322 98T372 128Q399 154 400 172T372 210Q359 219 340 227T303 239T270 243Q261 242 248 246T222 258Q216 265 211 281T204 301Q203 306 211 313T243
334T313 374Q355 397 377 409T412 429T434 445Q446 459 445 466T418 478Q393 480 378 479T363 473Q363 473 363 473T359 473Q354 475 337 472T305 465T288 458Q287 456 275 452T250 444T234 441Q229 443 223 455T212 480T210 499Q212 503 224 511T253 529T280 544Q294
548 321 551T376 557T416 559Q462 554 490 536T526 477Q529 463 526 448T513 418T483 385Q458 369 445 359T408 337Q401 332 386 326T358 315T345 308Q345 308 354 307T375 303T392 295Q421 285 445 261T480 222Q494 191 484 155T447 86T385 32Q357 16 317 10T244
1Z" />
<glyph unicode="4" horiz-adv-x="450" d="M331 -12Q327 -12 312 2T296 44Q297 75 306 109T325 171Q331 189 335 201T340 216Q339 216 330 214T306 209Q257 199 232 199T188 229Q182 235 172 251T159 286T168 318Q178 343 184 354T192 370T195 380Q196 382 198
386T203 394Q212 409 228 433T263 481T297 525T319 551Q325 554 340 560T363 566Q371 566 378 556T391 534T396 519Q396 519 395 517T391 510Q387 504 380 494T358 468Q346 454 328 428T293 372T263 319T251 288Q251 283 254 281T268 278Q281 280 291 282T311 286Q322
288 330 290T345 295Q353 298 359 300T371 307Q383 317 389 334T408 380Q416 400 424 416T440 447Q465 493 482 514T501 536Q504 536 515 528T536 511Q544 504 549 499T554 491Q554 479 549 467T533 438T510 397Q495 368 482 340T457 284T435 230T416 181Q394 122
386 94T378 56T382 38Q382 25 374 14T354 -5T331 -12Z" />
<glyph unicode="5" horiz-adv-x="434" d="M171 16Q153 29 153 38Q149 44 144 44Q141 43 139 54T135 78T134 95Q138 103 149 107T172 111T185 102Q187 94 200 89T236 85Q264 86 287 94T330 117T366 153Q373 167 379 190T387 231T384 249Q384 249 383 256T378 271Q373
286 355 301T320 324Q313 326 291 324T254 320Q238 319 236 320T233 322Q228 323 217 332T196 351T186 366Q188 373 197 390T219 427T247 466T273 497Q303 530 345 546T428 561Q457 560 471 554T498 531Q506 517 504 502T494 479T474 477Q460 486 436 484T385 474Q364
466 351 461T333 444Q329 441 328 438T322 436Q322 436 319 433T316 425Q311 419 310 417T304 418Q304 418 304 415T303 408Q302 401 307 399T332 394Q357 390 369 387T407 368Q435 352 448 321T464 252T462 180Q459 158 456 146T439 113Q416 81 380 57T304 18T229
3T171 16Z" />
<glyph unicode="6" horiz-adv-x="471" d="M297 16Q264 7 235 9T184 32Q170 43 156 62T138 101Q133 116 132 125T133 147T141 187Q149 223 155 243T179 289Q187 310 197 331T213 359Q218 366 228 380T249 406Q259 419 267 430T276 442Q281 445 285 448T295 458Q303
467 321 480T362 508T407 531T445 543Q477 554 475 542Q475 542 485 532T504 519Q508 518 510 513T516 502Q518 494 508 481T484 454Q470 444 465 443T455 446Q456 450 451 451T446 453Q440 455 424 450T389 433T355 405Q346 397 339 389T330 377Q317 364 307 352T297
339Q300 333 311 336T324 343Q324 347 346 353T392 362Q401 366 416 363T442 358Q464 354 472 350T492 331Q512 312 519 290T526 242Q526 226 523 214T509 189Q501 176 488 157T463 121T441 99Q437 97 434 95T430 92Q429 86 415 76T379 53T335 30T297 16ZM237 93Q253
91 261 91T291 99Q299 101 305 103T314 104Q314 104 326 112T355 131Q402 160 425 194T443 253Q444 259 441 266T438 276Q436 276 430 278T414 281Q404 284 395 284T368 281T309 267Q302 266 295 263T279 257Q277 254 269 250T256 244Q246 243 239 228T222 169Q217
138 216 128T218 111Q220 101 225 98T237 93Z" />
<glyph unicode="7" horiz-adv-x="446" d="M237 -26Q225 -24 209 -9T187 20Q183 39 203 86T257 198Q279 234 279 240T259 246Q250 248 235 251T216 259Q200 267 198 276T204 287Q214 292 211 300T209 314Q214 314 217 314T228 311Q242 311 254 310T278 309Q283
309 290 309T304 308Q318 306 323 310T342 333Q350 347 363 363T389 405Q424 455 428 472T412 487Q396 485 377 480T319 460Q291 449 276 447T249 450Q243 451 240 462T236 486T236 507Q238 518 277 531T367 557Q390 561 419 562T471 560T499 549Q499 549 501 547T505
548Q509 547 511 541T519 524Q529 507 531 499T531 476Q528 465 521 454T510 440Q505 436 503 431T500 426Q499 422 494 419T484 409Q483 405 480 400T475 392Q474 391 467 381T451 356T434 330T423 313Q409 300 409 294T422 282Q439 275 450 266T465 242Q466 219
457 215Q452 208 441 205T426 206Q423 212 413 217T392 226T379 229Q375 227 371 222T362 210Q355 200 344 180T322 140T305 110Q304 105 300 100T293 88Q289 81 286 68T283 44T286 32Q294 34 297 31T303 19Q308 12 296 1T266 -19T237 -26Z" />
<glyph unicode="8" horiz-adv-x="450" d="M182 -47Q175 -46 163 -38T139 -21T121 -6Q114 11 111 20T111 50Q111 62 113 78T123 104Q130 124 145 151T179 205T214 254T239 287Q250 301 250 310T229 347Q225 358 220 363T219 369Q219 369 217 372T211 383Q196 397
196 426T211 483Q227 519 254 545T311 575Q322 574 349 569T406 558T453 544Q465 539 484 526T520 500T537 481Q537 478 540 475T545 466Q551 455 551 436T549 399T540 372Q515 344 505 340Q500 336 494 330T479 322Q474 315 470 310T461 305Q457 308 453 308T449
305Q449 303 436 296T408 284T390 281Q390 281 387 281T378 277Q365 279 393 245Q416 202 427 163T424 102Q405 59 383 32T348 5Q348 5 344 2T334 -4Q332 -11 326 -13T314 -15Q305 -11 283 -25Q270 -34 249 -40T209 -48T182 -47ZM205 29Q215 28 231 34T266 50T300
70Q332 95 343 120T345 170Q339 182 332 196T320 218Q314 227 310 231T300 238Q300 238 296 232T286 214Q275 200 273 197T267 187Q260 180 254 174T245 165Q245 162 239 148T225 119Q203 81 198 56T205 29ZM360 355Q381 374 393 377T411 369Q413 365 430 374T464
401Q470 412 468 412T463 428Q464 438 463 444T454 456T425 470Q363 492 330 485T284 442Q278 423 278 411T286 382Q295 378 298 372T301 365Q301 356 309 356Q311 351 323 345T360 355Z" />
<glyph unicode="9" horiz-adv-x="438" d="M312 -42Q307 -41 298 -36T280 -23T272 -14Q273 -9 268 -9Q268 -9 266 -3T265 11Q265 14 266 26T267 45Q269 65 277 98T296 167T317 233Q331 269 330 277T304 283Q273 278 247 293T206 335T193 392Q194 407 199 419T218
454Q239 485 268 513T330 561T388 586Q404 589 426 588T460 582Q475 576 493 556T523 514T533 480Q526 447 517 430T495 399Q479 385 458 348T415 264T377 170Q363 128 360 94T363 59Q367 59 377 56T391 53Q394 49 394 44T389 28Q386 21 376 9T352 -14T327 -34T312
-42ZM283 369Q298 353 319 355T363 377T407 429Q419 443 422 451T430 463Q443 477 448 485T446 500Q439 511 431 512T399 504Q383 501 375 494T345 473Q341 469 337 469T329 469Q329 469 327 469T325 464Q330 455 313 441Q287 413 280 397T283 369Z" />
<glyph unicode=":" horiz-adv-x="198" d="M233 262Q212 255 198 255T167 268Q147 288 154 308T190 349Q210 361 219 361T248 354Q281 333 278 308T233 262ZM163 52Q142 45 128 45T97 58Q77 78 84 98T120 139Q140 151 149 151T178 144Q211 123 208 98T163 52Z" />
<glyph unicode=";" horiz-adv-x="198" d="M57 -86Q46 -86 39 -81T27 -69Q27 -62 31 -57T42 -45Q53 -35 63 -21T81 9T95 33Q99 44 103 59T111 92Q111 100 111 106T116 117Q124 124 135 129T158 126T176 78Q180 56 176 38T159 -6Q157 -13 144 -29T119 -58T103 -72Q99
-72 96 -74T89 -81Q85 -85 77 -85T57 -86ZM233 262Q212 255 198 255T167 268Q147 288 154 308T190 349Q210 361 219 361T248 354Q281 333 278 308T233 262Z" />
<glyph unicode="&lt;" horiz-adv-x="446" d="M348 43Q317 51 294 57T243 86Q209 106 189 118T149 158L116 198L105 251Q113 253 120 256T129 261Q141 267 153 275T187 298T246 333Q293 357 326 377T370 407Q376 414 384 416T396 419Q402 421 415 411T432 397Q443
390 448 387T454 376Q454 376 452 367T442 352Q429 341 407 329T352 301T275 257Q248 241 234 235T216 223T214 205Q231 185 269 165T383 121Q420 110 438 99T462 77T465 53Q460 44 440 39T395 33T348 43Z" />
<glyph unicode="=" horiz-adv-x="446" d="M241 267Q235 267 226 267T199 272Q184 272 175 275T162 286Q148 301 159 316T221 331Q260 339 304 342T394 345Q425 345 438 340T463 323Q481 308 476 291T447 277Q437 276 412 275T363 272Q356 272 336 271T290 268T241
267ZM186 124Q180 124 171 124T145 129Q129 129 121 132T108 143Q94 158 105 173T166 188Q205 196 249 199T339 202Q370 202 384 196T409 179Q427 164 422 147T393 134Q383 133 356 132T306 129Q299 129 279 128T234 125T186 124Z" />
<glyph unicode="&gt;" horiz-adv-x="446" d="M198 20Q192 18 180 28T162 42Q152 50 147 52T140 63Q140 63 142 72T152 87Q166 99 188 110T243 139T319 182Q346 199 360 205T378 216T380 234Q363 254 325 274T211 318Q174 330 156 340T133 362T129 386Q134 395
154 400T199 406T246 396Q277 388 300 382T351 353Q385 334 405 321T445 281L478 241L489 188Q481 187 474 183T465 178Q453 172 441 164T407 142T348 106Q302 82 268 62T224 32Q218 25 211 23T198 20Z" />
<glyph unicode="?" horiz-adv-x="374" d="M247 183Q231 185 224 196T217 220Q217 222 215 232T215 250Q215 256 221 269T234 300Q245 320 268 345T307 382Q316 389 320 391T324 394Q324 398 338 409T362 425Q362 425 375 434T395 450Q418 473 429 492T446 537T459
599Q460 634 456 642T440 660Q415 665 392 659T349 634T314 581Q308 564 308 558T310 542Q310 534 312 523T315 507Q311 506 299 503T274 499T248 511Q248 511 240 521T230 535Q224 543 224 550T225 573Q232 593 244 618T275 666T319 702Q340 711 358 721T377 732Q377
732 384 732T410 735Q416 734 423 735T431 731Q434 731 443 731T460 731Q472 728 489 719T521 698T543 679Q550 657 549 625T539 556T516 488T481 433Q475 427 459 413T426 383T397 354Q363 335 337 297T298 223Q287 199 274 191T247 183ZM224 6Q203 -2 189 -2T158
12Q138 32 145 52T180 92Q200 105 209 105T239 98Q272 77 268 52T224 6Z" />
<glyph unicode="@" horiz-adv-x="643" d="M307 -140Q273 -140 234 -124T162 -83Q145 -67 126 -44T95 0Q87 11 82 29T75 67Q74 84 77 109T86 158T99 196Q99 199 100 202T103 212Q103 218 110 232T126 259Q160 304 185 337T238 397T305 452Q324 467 352 481T411
505T464 519Q468 520 476 520T507 518Q538 515 570 503T623 471Q663 440 684 402T711 337Q715 323 715 297T712 246T703 207Q692 183 673 156T632 103T591 60T561 39Q546 39 522 46T485 63Q487 63 466 75Q466 75 459 68T441 51Q427 38 407 28T368 12T342 9Q323
14 312 18T292 30T268 58Q264 68 258 86T251 112Q251 122 254 134T261 161Q267 188 277 208T305 252Q321 275 349 299T407 336Q419 342 443 342Q452 342 461 340T479 332Q486 331 498 321T521 297T536 273Q539 258 539 251T536 227Q535 223 534 217T531 205Q530
197 527 184T522 165Q519 156 517 153T518 142Q517 138 522 135T534 129T545 127Q550 127 558 135T577 155Q593 172 602 182T617 202T629 229Q630 235 630 244T631 263Q631 313 611 354T537 418Q526 423 512 424T482 426Q460 426 438 423T395 410Q382 406 365 394T329
366T294 333T265 302Q222 251 198 199T167 96Q163 66 167 51T175 30Q186 8 202 -5T240 -33Q263 -42 294 -45T364 -46Q372 -48 374 -50T376 -62Q376 -63 377 -74T384 -96Q384 -105 385 -114T378 -127Q372 -129 359 -132T331 -138T307 -140ZM376 99Q384 104 394 113T414
131T425 147Q425 147 432 160Q438 171 444 185T453 213Q455 215 456 218T460 231Q460 236 459 239T451 247H452Q442 249 428 250T404 247Q392 242 379 227T356 190T339 149T334 115Q340 103 351 98T376 99Z" />
<glyph unicode="A" horiz-adv-x="511" d="M61 -33Q43 -23 42 -11T55 31T102 124Q126 169 134 194T144 231T145 245Q143 254 147 259T160 269Q165 274 183 287T211 318Q220 339 231 361T262 416T313 504Q333 539 360 583T415 663Q426 677 438 685T459 693Q481 693
503 682T542 653T565 621Q570 613 569 587T565 524T558 445Q555 404 549 348T538 231T529 114T529 15Q530 6 529 -2T528 -15Q522 -21 502 -21T463 -14T442 1Q439 4 438 6T438 25T441 90L446 243L433 242Q424 242 401 240T350 235T299 228T267 221Q258 221 246 209T222
178Q218 164 208 149T197 128Q190 123 186 116T181 109Q181 103 173 80T151 28T123 -22L96 -60L61 -33ZM300 311Q300 311 311 313T337 317T365 320Q388 326 403 329T429 332T445 330Q449 325 452 324T456 323Q457 325 460 344T467 391T475 449T482 506T486 548Q487
567 485 582T483 598Q477 598 461 577T423 520T380 443Q370 424 362 413T348 402Q346 400 338 387T320 357T304 327T300 311Z" />
<glyph unicode="B" horiz-adv-x="523" d="M203 -72Q160 -44 153 -16T172 29Q178 33 195 30T222 18Q242 0 267 -4T330 1Q372 14 394 33T445 87Q466 114 474 140T483 187T472 220Q447 255 410 268T313 266Q306 265 292 262T267 257T255 254Q248 252 244 252T235
243T218 204T185 113Q164 52 150 27T124 3T99 25Q91 39 82 56T82 91Q87 100 90 107T98 134Q103 149 117 186T152 274T194 379T236 481T271 562Q285 593 288 607T286 622Q286 627 283 631T281 640Q281 644 298 651T336 664T365 668Q370 668 377 668T384 673Q387
673 403 675T438 675Q505 669 548 637T590 533Q589 516 576 489T544 435T502 388Q489 377 475 366T450 347T439 339Q439 339 447 336T464 330Q510 313 536 287T574 215Q578 200 575 178T565 135T552 98Q545 91 541 84T537 76Q537 74 529 61T510 31T489 3Q479 -5
461 -19T421 -48T380 -69Q352 -81 318 -85T252 -87T203 -72ZM275 343Q275 343 291 346T328 354T358 363Q363 366 372 371T392 386Q406 399 422 415T453 451T480 492Q503 528 505 544T494 573Q485 584 469 589T435 595T399 591Q386 587 379 582T372 565Q372 556
367 547T356 532Q355 525 350 519T344 512Q344 508 332 488T305 429Q287 386 281 367T275 343Z" />
<glyph unicode="C" horiz-adv-x="477" d="M221 -66Q206 -60 186 -50T148 -22T120 19Q110 48 107 76T104 141Q104 193 111 231T135 310Q137 313 142 327T155 359T167 385Q175 402 191 430T227 486Q256 529 276 556T314 603T355 640T412 681Q434 697 468 701T536
691T585 636Q596 615 595 584T583 517T555 450T517 400Q504 388 483 396T447 417Q438 434 438 437T441 441Q447 448 457 465T477 501T491 533Q499 575 502 588T496 611Q492 615 485 614T460 604Q437 594 406 564T343 491Q303 438 276 397T235 313Q233 309 229 298T224
287Q225 283 221 268T212 241Q201 195 199 153T204 79T227 32Q240 23 260 26T306 40T362 64Q386 74 406 86T436 107Q444 113 456 119T478 126Q492 131 499 118T506 85Q506 71 486 51T442 17Q434 9 421 3T393 -9Q372 -25 341 -40T279 -63T221 -66Z" />
<glyph unicode="D" horiz-adv-x="587" d="M212 -106Q193 -109 166 -106T108 -94Q92 -89 86 -82T64 -56Q54 -41 52 -22T56 12T82 30Q90 32 101 27T126 13Q147 1 171 -11T215 -21Q229 -18 248 -18T286 -14T316 -3Q369 33 395 54T421 76Q423 80 428 82T442 88Q448
94 461 107T486 134T502 149Q504 158 506 163T508 175Q516 183 529 208T557 265T577 323Q590 378 586 423T563 504T512 567Q501 576 482 586T443 606T408 621T389 625Q385 624 374 595T346 519T311 421T275 321Q270 302 263 281T250 245T245 224Q234 207 222 172T202
72Q193 38 189 16T181 -6Q181 -6 180 -15T176 -28Q176 -34 164 -36T136 -31T106 -4Q103 7 102 28T108 79Q113 98 122 128T142 190T162 249T176 289Q183 306 196 353Q204 379 212 405T229 451T240 478Q245 491 252 520T276 588L283 621L272 626Q260 622 254 623T245
626Q239 624 230 629T213 644T203 659Q201 663 201 669T200 676Q201 682 217 688T258 701T313 710T367 711Q393 709 431 699T496 679Q528 667 565 638T632 569T673 485Q676 473 679 451T682 409T678 382Q676 378 676 373T679 365Q678 362 672 343T661 309Q659 283
648 249T623 185T599 137Q595 137 592 136T592 133Q592 128 581 114Q577 111 569 100T555 84Q554 77 549 73T540 68Q540 68 539 68T537 64Q529 52 510 33T467 -6T419 -43T375 -68Q365 -75 354 -79T333 -89Q328 -93 304 -96T254 -101T212 -106Z" />
<glyph unicode="E" horiz-adv-x="534" d="M239 -39Q208 -37 177 -17T120 22Q103 39 94 58T79 110Q75 129 79 160T92 222T109 272Q121 300 139 332T176 394T206 442Q213 449 213 449T212 450Q212 455 222 475T241 512Q256 528 258 538T255 554Q253 558 263 571T293
600T335 630Q359 649 381 650T408 641Q408 638 419 639T446 644T474 650Q479 656 497 659T541 666Q554 665 570 665T598 667T611 668Q618 670 631 660T653 631Q660 613 641 600T581 582Q551 578 535 576T500 570T446 558Q421 553 404 550T375 538T347 506Q340 501
329 480T307 438Q279 399 266 381T256 357Q256 357 270 354T288 351Q298 356 312 358T336 362Q398 378 427 385T469 396T492 400Q506 411 520 399T541 369Q548 349 541 338T511 320T444 304T336 276Q281 260 247 257T215 274Q208 278 200 267T184 235T172 192T165
149T168 118Q176 95 193 79T245 52Q265 51 284 49T327 57Q386 67 409 78T437 93Q445 97 447 101T455 105Q452 100 457 105T473 119Q494 137 515 141T550 142T565 133Q571 123 559 102T523 56T465 13Q412 -15 350 -26T239 -39Z" />
<glyph unicode="F" horiz-adv-x="466" d="M520 301Q514 297 496 292T433 281Q420 280 396 279T345 277T295 276T263 279Q263 279 259 274T254 261Q247 249 237 226T216 174T194 119T178 71T171 42Q162 18 160 1T153 -19Q150 -34 135 -34T111 -25Q89 -14 81 3T80
43Q83 56 90 81T107 138T127 198T148 247Q159 266 162 281T170 310Q169 321 170 324T178 337Q183 341 190 351T208 384Q211 394 217 411T230 447T241 479T246 493Q248 497 252 508T258 527Q262 541 264 550T263 559Q255 557 231 556Q219 554 214 554T204 552Q194
551 186 554T178 566Q180 582 189 599T214 617Q221 619 229 620T253 626Q272 630 286 629T307 625Q312 628 315 631T320 639Q325 657 338 666T365 676T389 669T394 641Q395 638 396 636T411 636T459 646Q477 648 504 650T548 647Q565 650 578 650T597 653Q618 649
627 648T643 641Q647 637 646 634T645 630Q641 632 644 631T652 625Q659 622 659 613T659 594T656 581Q655 572 646 571T601 570Q558 576 522 575T430 565Q408 564 393 560T377 555Q373 555 363 542T344 502Q340 495 331 473T311 426T293 381T283 359Q297 355 326
355T392 357T460 363Q475 366 491 368T513 369Q525 368 531 354T535 324T520 301Z" />
<glyph unicode="G" horiz-adv-x="494" d="M159 -46Q132 -26 118 11T104 81Q103 143 114 209T145 332Q158 368 173 405T204 475T235 532Q266 585 298 617T348 659Q376 673 415 680T491 680Q517 673 542 660T587 628Q598 618 604 607T610 584Q610 569 596 555T565
536T539 542Q526 562 514 572T489 588Q478 595 460 595T420 589T380 566Q373 560 362 549T338 523T315 489Q287 443 268 396T233 292Q226 269 218 236T204 169T195 111Q192 76 197 56T218 30T263 30Q289 36 315 50T367 87T412 141Q430 175 441 203T453 247T436
263Q395 262 371 266T337 286Q324 289 324 308T342 339Q359 348 389 350T450 349T501 334Q523 323 531 302T540 256T537 211Q528 176 513 143T471 76Q456 55 430 32T376 -9T322 -39Q282 -57 239 -65T159 -46Z" />
<glyph unicode="H" horiz-adv-x="574" d="M153 -91Q153 -91 143 -88T122 -81T104 -78Q88 -74 81 -61T78 -31Q82 -27 84 -14T86 7Q90 15 91 18T96 38Q99 55 106 85T123 151T142 218T158 272T169 297Q169 297 169 300T169 308Q169 308 170 317T180 339Q184 350 187
363T190 380Q194 385 201 404T216 443Q222 459 229 477T242 508T248 521Q248 525 248 525T248 526Q252 530 267 566T310 661Q314 669 322 686T330 708Q345 723 359 719T385 701T402 677L412 661L375 589Q359 561 348 538T336 511Q336 511 332 499T321 469T309 432Q298
401 288 381T278 356Q278 358 298 359T350 360T413 360T472 361T508 364L560 369L588 458Q596 486 609 526T632 594Q648 640 666 658T696 677Q699 677 707 672T725 659T736 646Q748 635 748 621T731 584Q715 557 705 526T686 474Q686 462 683 455T676 443Q674 441
668 428T657 402T652 386Q652 379 649 369T642 355Q640 349 633 325T617 269T598 206T580 155Q580 148 575 138T570 119Q566 107 560 89T554 66Q549 43 544 13T535 -40T531 -66Q505 -69 492 -59T468 -45Q449 -34 446 -18T453 22Q458 30 465 61T481 124Q487 139
494 162T507 207T519 246T526 264Q526 268 526 271T526 274Q524 276 506 277T461 279T401 277T340 271Q329 271 309 271T280 271Q269 271 262 271T254 271Q252 268 247 251T234 210T219 161T206 116T198 86Q194 68 188 41T174 -14T161 -64T153 -91Z" />
<glyph unicode="I" horiz-adv-x="409" d="M181 -41Q174 -30 157 -27T105 -26Q91 -28 76 -24T52 -12T45 4Q46 16 73 30T143 45L185 46L195 66Q199 77 201 90T211 126Q215 140 223 165T240 218T256 270T265 302Q269 311 276 332T289 376T298 409Q324 488 332 519T336
552Q332 552 317 551T284 549T252 545T235 541Q230 534 218 543T203 563Q202 572 203 580T209 591Q216 597 238 604T287 618T338 627Q355 629 372 634T399 648Q408 651 416 653T434 654Q442 649 461 649T503 650Q559 655 581 647T611 624Q616 605 609 593T585 581Q576
579 560 578T518 575Q452 569 447 561Q443 557 441 553T434 544Q435 540 430 521T416 479Q412 466 404 442T388 393T372 347T362 319Q358 310 356 300T352 284Q338 235 329 202T312 145T299 98T285 47Q285 47 302 48T345 52Q392 57 409 58T429 56T435 43Q455 16
433 -2T354 -19Q302 -21 278 -22T246 -27T239 -37Q240 -53 220 -56T181 -41Z" />
<glyph unicode="J" horiz-adv-x="315" d="M92 -204Q69 -217 42 -216T-9 -204T-50 -176Q-57 -168 -56 -147T-50 -112Q-45 -94 -37 -94Q-26 -94 -12 -113Q16 -138 43 -127T102 -68Q108 -53 121 -25T148 35T175 94T191 134Q191 134 191 137T196 145Q197 149 201 161T209
189Q213 200 220 222T236 268T251 308Q256 329 263 353T276 391Q280 399 288 423T306 477Q318 516 327 545T341 591T344 612Q344 612 327 609T288 602Q271 595 254 593T239 604Q239 608 239 611T239 615Q236 613 231 619T222 634T218 649Q218 657 241 667T296 682Q316
685 344 687T386 692Q390 695 404 690T433 678T453 665Q459 657 460 648T458 623T444 578T414 497Q392 435 375 385T344 301Q341 290 334 269T319 227T308 191Q300 172 293 150T282 115Q282 107 278 97T269 82Q269 82 262 65T245 23Q237 3 228 -21T210 -59Q205
-71 198 -81T191 -96Q191 -96 191 -99T186 -102Q186 -102 183 -104T180 -112Q178 -118 167 -131T142 -159T114 -187T92 -204Z" />
<glyph unicode="K" horiz-adv-x="508" d="M108 -47Q95 -39 84 -28T79 5Q78 17 80 28T84 43Q89 43 90 48T91 58Q91 66 97 85T109 125Q117 142 124 161T132 184Q132 192 136 200T145 217Q150 229 152 243T155 266Q161 279 168 294T179 325Q185 342 197 375T222 443Q231
462 239 482T255 517T265 532Q265 532 265 535T265 543Q265 548 273 562T288 593Q298 608 302 621T306 635Q306 635 310 641T318 652Q344 666 362 666T388 642Q396 620 395 612T388 591Q380 573 367 546T340 487T314 428T294 379T286 354L244 251Q240 244 231 216T210
148T186 68T161 -6Q155 -23 150 -34T140 -52T128 -58Q124 -58 119 -55T108 -47ZM462 -45Q453 -46 438 -37T405 -13T372 16T347 42Q331 65 307 104T270 186Q263 218 256 237T248 272L249 334L322 339Q327 285 338 250T364 186Q376 160 390 135T423 93Q446 68 464
56T491 44Q510 35 519 27T531 13T533 2Q534 -1 532 -11T526 -32T515 -46Q508 -53 497 -54T462 -45ZM230 337L303 391Q306 394 320 407T377 453L509 560Q534 573 555 589T590 614Q607 626 625 639T647 651Q655 655 666 644T684 617T691 593Q693 583 688 576T662
557Q637 546 623 536T606 521Q606 521 585 505T535 469Q495 442 470 422T436 389Q432 389 429 386T421 384Q421 384 413 379T401 367Q399 362 393 354T377 347Q370 343 352 331T315 303T281 276T266 262L230 337Z" />
<glyph unicode="L" horiz-adv-x="426" d="M194 -61Q154 -51 130 -20T90 56Q89 69 89 92T92 135T96 158Q99 160 99 170Q98 174 100 183T106 203Q111 215 111 222T110 234Q110 234 113 240T120 251Q126 257 126 263T125 269Q124 273 127 280T133 291Q135 293 138
299T142 306Q142 309 146 322T157 350T168 379T177 396V398Q181 408 188 419Q189 424 193 435T202 458Q213 482 229 512T265 573T301 628T332 665Q349 684 366 692T399 686Q406 679 411 666T416 641T407 628Q400 624 388 606T362 562T333 511T307 463Q294 434 283
413T272 391Q271 388 270 386T268 382Q253 351 243 326T223 272Q217 265 216 258T215 251Q213 252 212 247T208 234Q203 230 202 222T201 205Q194 187 188 162T180 113T178 76Q180 59 187 48T209 29Q220 24 229 21T245 17Q253 16 265 17T300 23H299Q312 25 326
28T354 35Q366 37 377 39T394 44Q416 50 429 54T448 54Q453 50 459 39T462 19Q460 14 442 -1T401 -32T359 -54Q339 -63 306 -66T241 -68T194 -61Z" />
<glyph unicode="M" horiz-adv-x="729" d="M675 -48Q671 -52 656 -51T632 -36Q625 -22 624 -4T624 46Q630 81 644 138T675 265T711 410Q720 445 725 469T733 505T736 518Q735 516 734 514T731 510T729 506Q729 506 726 499T711 475Q703 463 696 447T672 405Q656
375 636 336T602 274Q595 263 590 255T582 242Q578 231 569 215T548 184Q542 175 533 163T516 142T509 132Q507 126 496 113T470 85T438 56Q403 28 381 21T329 38Q316 54 308 70T300 116T310 197Q317 230 325 267T343 338T359 398T370 434Q373 459 371 460T361
449Q354 438 335 403T293 321T247 227Q206 151 178 100T132 19T105 -27T91 -49T84 -58Q69 -57 58 -44T40 -13Q38 -3 37 8T39 32T51 62Q64 88 76 106T91 128Q96 135 99 143T103 158Q108 164 118 183T140 224Q148 237 162 260T192 311T220 362Q264 441 290 488T327
549Q334 554 339 568T349 590Q363 618 377 636T403 655Q411 655 423 649T448 632Q459 619 468 598T472 541Q471 525 467 503T459 458T451 421Q443 376 434 336T416 261T403 202T397 160T400 139Q403 138 408 141T417 149Q423 157 428 165T441 185Q457 207 474 233T516
299T575 397T658 543Q681 578 702 613T740 667Q755 683 777 678T819 653T840 604Q841 590 835 555T817 475T792 389Q789 372 782 344T767 287T752 235Q745 201 741 181T736 135Q727 119 724 89T721 27Q717 -12 705 -28T688 -43Q680 -40 675 -48Z" />
<glyph unicode="N" horiz-adv-x="619" d="M110 -85Q90 -74 83 -59T77 -26T84 11Q92 43 101 64T120 109T137 170Q153 207 165 240T185 294T192 315Q193 319 200 336T219 377T242 427Q259 475 274 508T304 569T338 623Q350 644 372 648T414 644T440 615Q445 605
448 592T455 554T460 480Q462 423 462 376T466 288T479 215Q482 197 485 172T491 121T499 80T507 63Q512 63 518 71T536 108T564 194T605 350Q610 367 618 405T631 482Q638 507 645 537T657 590T663 616Q663 623 663 628T663 638Q668 638 672 651T676 675Q676 692
680 702T690 718Q701 738 718 738T751 729T769 703Q771 692 764 654T741 550Q741 539 735 514T723 461T713 413Q709 387 704 365T694 343Q668 230 640 151T589 21Q565 -34 528 -49T458 -24Q439 2 426 27T405 86T391 172Q385 214 381 254T374 337T373 428Q374 485
369 495T353 484T330 427Q323 407 314 382T294 331T277 288T268 265Q262 253 254 234T241 192Q205 98 188 31T162 -59Q152 -87 144 -93T110 -85Z" />
<glyph unicode="O" horiz-adv-x="505" d="M187 -35Q150 -8 129 15T105 61Q103 79 105 110T112 171T119 216Q124 221 124 229T123 238Q122 243 130 264T145 320Q165 380 183 420T220 490T256 543Q297 585 333 610T401 649Q421 661 438 668T466 670Q522 658 561
621T613 514Q620 470 621 435T616 365T591 289T539 193Q498 112 450 58T353 -25T261 -55T187 -35ZM267 31Q290 34 304 40T335 63T380 113Q406 143 423 164T453 207T477 259T503 338Q511 368 514 382T519 407T520 434T519 488Q518 505 512 526T498 557Q488 568 468
576T426 574Q414 569 396 554T359 517T323 475T296 437T286 413Q286 413 286 408T281 398Q268 384 254 352T228 279T208 197T198 123Q198 107 198 96T200 77T209 58Q215 48 233 38T267 31Z" />
<glyph unicode="P" horiz-adv-x="468" d="M115 -57Q103 -57 95 -44Q89 -38 82 -25T77 17T99 104Q109 142 115 159T121 185Q121 196 123 203T126 218Q132 218 138 229T148 259Q152 276 155 286T159 301Q164 309 169 326T187 367Q195 397 205 429T225 490T243 535Q254
566 260 578T260 595Q253 600 253 620T272 656Q283 669 300 674T339 680T385 678Q403 677 423 677T449 677Q458 673 471 668T494 659T505 651Q505 645 509 644T519 641Q526 641 542 629T574 599T598 564Q606 547 611 532T612 489Q611 474 608 459T600 439Q594 435
589 429T584 418Q584 414 576 399T556 364T530 325T504 295Q491 279 474 265T442 242Q416 230 383 219T318 202T268 196Q239 192 230 189T217 171Q212 158 208 144T203 124Q201 120 195 102T180 60T164 12T153 -29Q149 -43 137 -50T115 -57ZM257 277Q261 273 283
276T336 291Q356 298 376 308T416 330Q426 337 437 347T468 383Q471 388 478 402T492 430Q501 444 510 471T514 517Q509 543 494 560T456 586Q434 590 420 591T388 589Q372 584 366 575T347 537Q340 523 327 499T305 449Q287 383 274 348T256 302Q257 291 255 287T257
277Z" />
<glyph unicode="Q" horiz-adv-x="492" d="M235 -86Q220 -83 198 -70T158 -40T132 -9Q107 42 105 99T119 239Q124 256 132 285T151 343T169 392T179 412Q182 415 182 429Q182 434 190 450T212 488T240 528T268 559Q288 585 313 610T364 649Q370 653 385 658T418
667T447 672Q497 675 529 657T581 599Q601 577 603 554T609 501Q609 474 604 438T589 366T569 307T548 283Q548 283 545 283T542 277Q544 270 538 246T517 192Q485 102 438 38T338 -59T235 -86ZM441 -126Q425 -127 404 -119T379 -98Q372 -92 372 -87T370 -79Q366
-77 359 -69T349 -49Q342 -35 329 -9T300 46T274 96T260 121Q252 129 262 141Q267 153 283 163T318 169Q341 169 360 121Q361 116 369 97T387 60T403 36Q408 25 414 11T427 -12Q430 -23 440 -36T454 -63Q477 -99 472 -113T441 -126ZM250 0Q292 6 328 44T398 149T461
300Q470 325 483 355T508 421T519 499Q525 543 515 559T481 587Q449 599 414 584T346 528T283 416Q242 329 221 265T194 150T199 55Q201 24 213 9T250 0Z" />
<glyph unicode="R" horiz-adv-x="544" d="M160 -60Q156 -70 133 -70T93 -57Q81 -45 78 -39T81 -17T105 38Q109 62 119 86T134 121Q138 135 150 167T179 240T211 315T233 369Q250 409 268 453T317 564Q321 574 314 585T290 596Q280 607 279 619T289 637L381 668Q428
679 477 675T571 647Q619 619 641 585T665 517T657 454Q649 433 627 408T575 358T514 313T455 281Q430 269 399 257T339 235Q323 231 301 231T268 235L251 203Q241 167 217 96T160 -60ZM557 -79Q549 -82 531 -81T489 -65Q445 -39 401 -2T302 98Q281 123 271 148T244
211L230 265L268 290L312 254Q328 219 349 187T393 130Q411 109 442 80T508 23T571 -18Q577 -23 575 -37T567 -65T557 -79ZM305 313Q328 315 355 325T414 349Q443 363 471 379T523 416T560 459T572 508Q572 521 564 537T544 566T518 583Q478 593 457 595T427 589T412
561Q412 558 404 542T385 502T362 449Q333 390 320 363T304 326T305 313Z" />
<glyph unicode="S" horiz-adv-x="495" d="M266 -65Q248 -60 237 -57T226 -53Q228 -48 225 -44T210 -39Q195 -29 179 -11T151 26T135 54Q128 69 136 72T155 81Q166 89 178 93T199 80Q212 57 239 41T302 22T374 34Q398 45 400 64T385 110Q382 118 377 123T361 136T331
162Q316 169 304 175T277 188Q261 196 241 210T204 242T178 276Q162 291 158 317T159 374T178 428Q184 442 200 464T236 511T274 554T304 581Q312 589 321 597T330 606Q331 611 333 611T336 611Q341 614 358 621T395 647Q462 679 509 690T583 702V702V702Q608 701
632 689T673 657T694 614Q701 590 688 557T651 494T602 450Q574 438 555 447T536 475Q536 483 541 494T572 533Q604 580 606 600T588 623Q582 625 565 622T529 615T495 605T480 598Q480 598 480 595T476 593Q474 593 463 587T435 570T404 550T377 531T365 521Q363
510 342 501Q322 489 307 467T272 411Q255 388 248 362T248 319Q253 303 275 288T337 249Q371 230 401 209T452 169T479 136Q491 119 493 97T494 55T487 21Q480 5 466 -13T439 -30Q428 -33 423 -37T410 -44Q403 -48 377 -53T320 -62T266 -65Z" />
<glyph unicode="T" horiz-adv-x="458" d="M224 -53Q206 -54 194 -36T183 -6Q184 10 192 40T210 101T228 150Q232 166 235 178T240 195Q243 199 249 216T260 249Q262 257 268 279T284 332T303 391T320 442T329 471Q337 483 341 494T346 509Q352 513 353 519T354
530Q354 535 357 538T361 545Q365 548 366 546T372 549L377 583L466 584Q464 572 460 555T441 508Q436 488 430 472T424 451Q422 449 416 431T401 387T384 335T369 290T360 265Q352 249 342 218T312 134Q304 118 293 86T274 28Q263 -11 255 -28T239 -48T224 -53ZM233
535Q192 531 178 545T167 575Q170 587 181 595T224 610Q235 612 252 615T286 621Q319 625 340 628T385 633T443 637Q472 639 492 640T513 642Q516 642 534 640T573 635T604 628Q627 623 641 610T659 580Q662 568 659 562T648 551Q625 544 611 540T582 540Q577 545
571 549T549 555T500 560Q472 557 451 557T430 552L371 549L322 544Q312 543 294 542T259 539T233 535Z" />
<glyph unicode="U" horiz-adv-x="482" d="M229 -60Q177 -46 150 -7T120 101T138 275Q145 310 158 355T188 447T225 539T264 618Q287 659 304 673T337 685Q361 681 373 666T386 633T368 604Q357 591 340 557T304 490Q284 432 269 388T244 304T226 222Q217 180 212
158T206 124T204 104T203 81Q211 68 216 58T229 46Q246 38 263 38T302 50Q307 60 315 64T323 68Q325 63 327 65T331 72Q330 76 333 79T340 87Q348 90 360 104T385 135T405 168T414 187Q414 192 418 196T427 206Q432 211 447 238T481 303T515 371Q518 382 526 406T543
463T562 527T578 585T588 623Q590 636 594 644T599 657Q610 666 624 662T650 651T669 640Q675 632 674 620T668 584T652 513Q631 431 602 362T538 216Q538 216 538 216T538 210Q526 203 519 189Q514 180 511 174T502 164Q499 155 496 148T493 141Q492 136 486 132T474
124Q469 122 468 116T464 106Q442 73 410 40T345 -19T284 -54Q266 -61 255 -62T229 -60Z" />
<glyph unicode="V" horiz-adv-x="490" d="M264 -60Q259 -58 257 -54T253 -38Q253 -27 247 -22T224 -13Q213 -2 206 12T195 59T187 156Q189 191 190 215T194 260T198 305T206 365Q204 388 208 415T210 458Q217 480 219 508T228 559Q230 576 232 591T235 616Q233
636 239 658T268 690Q274 692 284 692T301 690Q317 683 319 668T321 642Q323 631 323 604T322 545T312 481Q304 440 300 398T293 314Q289 232 285 178T284 100Q284 97 284 92T287 83T292 79Q296 80 298 85T304 100T314 123Q327 148 340 177T364 234Q382 276 400
306T434 373Q440 389 455 419T485 476Q502 502 517 526T554 590Q583 638 604 660T641 683Q652 685 659 684T674 672Q682 661 684 647T678 611T643 552Q623 522 599 482T554 407T524 354Q519 343 515 331T503 309Q493 299 476 266T443 201Q425 159 415 136T398 97T385
68T370 33Q365 16 357 4T347 -14Q340 -25 323 -37T288 -56T264 -60Z" />
<glyph unicode="W" horiz-adv-x="720" d="M503 -62Q490 -63 480 -57T465 -40Q461 -35 452 -19T441 10Q438 42 438 72T440 156Q443 200 452 234T470 293T484 330T486 343Q482 343 478 336T468 316T456 290T442 263Q428 232 410 198T372 131T339 75Q330 65 318 47T292
8T263 -25Q241 -46 218 -50T175 -45Q165 -44 154 -35T137 -11T133 15Q132 29 133 58T139 123T147 192T156 247Q165 311 180 378T209 513Q217 533 223 558T237 606Q238 628 253 633T285 635T310 621Q320 611 329 590T324 537Q304 488 286 418T252 247Q248 223 244
194T236 137T231 93T231 74Q239 72 248 83T269 118Q310 186 346 253T420 393Q437 422 454 456T488 520Q505 550 521 578T549 625T567 647Q594 647 607 633T629 599Q631 594 631 582T628 561Q627 554 620 532T606 483Q596 456 589 430T578 386Q570 343 558 292T538
191T528 101Q527 73 528 65T534 47Q536 39 543 43T557 57Q571 78 578 93T594 125T616 170Q641 216 667 271T718 380T761 476Q780 530 793 563T817 615T838 639Q843 643 859 643T885 635Q889 631 899 622T908 601Q903 585 890 549T859 470T825 387T797 324Q786 303
776 288T766 265Q766 261 756 241T731 191T697 131T663 74T636 34Q611 3 583 -18T532 -51T503 -62Z" />
<glyph unicode="X" horiz-adv-x="524" d="M634 650Q654 649 662 629T666 579T637 514Q614 491 611 475Q604 466 590 450T559 415T530 382T513 365Q499 353 482 337T451 308T433 289Q426 282 420 275T409 265Q408 261 403 256T396 245Q394 244 383 234T359 212T335
189T323 177Q312 167 289 143T238 88T184 30T141 -19T121 -45Q117 -53 109 -55T92 -56Q88 -58 74 -57T58 -55Q58 -55 56 -50T52 -34Q46 -24 51 -3T61 30Q68 43 75 52T99 76T151 125Q167 141 183 155T201 173Q202 177 209 184T223 201Q230 206 246 221T283 256T322
295T355 326Q361 334 369 342T388 363Q389 365 401 377T431 407T463 441T487 467Q527 514 559 558T605 630Q615 651 620 650T634 650ZM493 -31Q474 -29 450 -10T402 50Q365 101 337 173T298 330Q293 365 287 390T279 418Q278 422 280 423T283 425Q286 428 284 431T280
440Q280 440 275 463T267 520Q263 556 261 582T256 617Q253 619 253 623T253 627Q255 633 264 641T277 653Q292 664 310 660T341 639T354 597Q354 571 360 565Q359 563 359 550T361 521T365 490T368 471Q364 459 368 454Q369 446 371 433T372 414Q371 409 374 397T381
371L407 281Q415 249 422 225T439 177T463 124Q474 100 489 80T516 52Q518 50 526 50T537 52Q548 55 552 45T556 22T557 -2Q559 -9 549 -16T524 -28T493 -31Z" />
<glyph unicode="Y" horiz-adv-x="504" d="M314 259L279 303Q259 333 247 359T230 423Q223 447 221 468T219 516T221 585Q222 623 233 647T248 680Q269 698 282 687T302 650T308 595Q311 488 321 433T348 365Q360 362 369 367T392 389T433 433Q461 462 489 494T542
557T588 609T621 638Q625 644 635 648T654 655T664 658Q672 656 673 646T681 625Q683 621 690 613T696 600Q696 597 687 587T668 566T653 551Q640 540 613 513T556 454T507 397Q463 346 429 309T386 265Q385 263 373 263T356 254L314 259ZM258 -76Q254 -75 242
-67T219 -52Q212 -44 211 -35T213 -11T224 31Q225 54 233 87T254 142Q254 153 259 172T271 211T285 247L303 299L343 333L395 297Q391 291 388 283T380 256T365 197Q357 170 348 139T330 81T316 37Q304 -8 295 -34T277 -69T258 -76Z" />
<glyph unicode="Z" horiz-adv-x="522" d="M118 -57Q97 -55 78 -51T51 -28Q42 -7 51 18T70 53Q87 71 106 92T151 139T217 203T314 292Q354 326 378 348T421 390T463 433Q498 469 522 495T551 542Q557 562 555 570T536 582T485 588Q423 593 372 588T276 574Q269
572 260 581T250 594Q254 599 254 608T246 623Q242 633 246 642T254 656Q262 660 284 663T329 670Q344 673 373 674T433 675T482 673Q518 670 556 665T624 648T663 614Q674 591 668 573T650 525Q638 503 610 467T545 391T470 316Q414 264 370 224T281 145Q253 121
229 100T177 52Q167 39 173 31T221 25Q244 26 257 29T285 35T327 39Q379 42 413 44T476 46Q484 46 489 44T505 28Q514 25 515 14T511 -10T497 -30Q490 -30 473 -33T435 -39T398 -41Q385 -40 349 -42T270 -50Q233 -56 189 -57T118 -57Z" />
<glyph unicode="[" horiz-adv-x="330" d="M66 -144Q49 -136 45 -116T53 -79Q58 -76 62 -68T66 -53Q66 -46 71 -22T85 34T103 97T119 150T130 177Q130 182 137 199T161 242Q177 293 198 352T243 468T285 567T317 629Q320 642 322 654T325 671Q325 691 335 701T374
712Q403 716 427 717T476 722T536 738Q551 741 569 751T592 762Q604 765 610 758T624 738Q638 722 637 712T613 692Q596 687 568 678T509 661T455 650Q436 645 423 641T406 633Q404 630 399 618T387 592T375 566T370 552Q368 550 360 535T342 499T324 460T314 432Q312
426 304 406T286 363T273 329Q269 319 264 302T253 268T243 242Q243 239 241 227T233 207Q229 200 224 187T215 162Q211 155 207 149T203 138Q203 135 203 129T198 112Q195 108 195 103T194 98Q190 94 186 76T173 36Q165 11 159 -7T152 -33L147 -61L177 -55Q195
-52 224 -49T282 -43T325 -40Q343 -36 350 -39T363 -49T376 -65Q380 -73 382 -78T381 -87Q379 -90 356 -96T305 -108T255 -117Q239 -117 229 -117T218 -117Q218 -126 185 -126Q174 -132 156 -136T131 -144Q109 -153 93 -153T66 -144Z" />
<glyph unicode="\" horiz-adv-x="330" d="M333 -121Q329 -121 325 -119T319 -114Q301 -111 305 -95Q305 -91 301 -68T289 -11T273 63T255 139T239 204T228 243Q229 247 227 251T226 259Q226 264 225 271T224 283Q220 287 219 296T218 314Q219 322 217 329T210
337Q209 340 205 357T196 400T185 453T174 509T166 555T162 582Q164 590 162 601T158 625Q154 674 163 701T189 738T225 739Q231 734 235 716T235 674Q234 663 237 638T245 579T256 509T267 440T276 384Q283 362 284 348T284 329Q284 329 284 324T288 318Q292 314
292 310T293 301Q292 299 295 286T303 255T313 221T321 196Q322 183 324 174T326 161Q326 159 329 145T339 110T350 71T358 41Q370 4 376 -14T385 -43T384 -66Q384 -77 382 -85T369 -101Q359 -108 346 -114T333 -121Z" />
<glyph unicode="]" horiz-adv-x="330" d="M120 -126Q116 -126 107 -126T87 -124Q80 -125 64 -125T30 -123Q15 -124 -3 -118T-26 -112Q-26 -112 -31 -105T-41 -92L-55 -82L-43 -77Q-39 -72 -21 -66T19 -55T61 -47T85 -46Q88 -46 98 -47T119 -48L146 -45L156 -18Q158
-6 159 6T161 23Q167 28 170 36T173 50Q176 58 181 73T193 107Q195 123 205 150T219 203Q225 223 233 246T244 282Q246 297 253 313T261 344Q270 372 285 416T317 512T348 609Q359 631 364 651T370 672Q370 672 351 671T302 667Q239 663 213 662T181 660T175 663Q172
666 172 670T168 675Q164 674 160 682T155 697Q155 706 173 715T222 731T289 743Q333 748 345 747T361 745Q372 748 393 751T436 755T464 751Q467 751 473 738T480 715Q488 701 488 698T482 686Q478 680 470 665T453 631T439 599T434 582Q434 579 433 577T427 573Q427
573 425 572T422 566Q424 558 419 544T410 529Q410 529 408 528T405 522Q405 518 403 508T395 484Q385 449 375 426T365 400Q365 400 362 393T357 379Q353 371 349 353T343 318Q334 305 327 287T318 262Q315 252 314 243T312 234Q312 231 308 213T297 174T285 144Q285
140 280 120T267 74Q263 51 258 30T251 4Q251 1 247 -2T242 -11Q242 -15 242 -21T237 -32Q234 -37 234 -42T234 -48Q237 -48 236 -50T235 -52Q232 -52 232 -59T231 -72Q231 -93 223 -106T199 -123T155 -126Q131 -123 125 -123T121 -125T125 -127T120 -126Z" />
<glyph unicode="^" horiz-adv-x="446" d="M134 287Q129 291 123 298T116 322T129 374Q146 408 153 424T172 453Q181 469 199 489T240 527T284 556T321 566Q330 565 344 546T374 498T406 436T435 375T455 329Q460 317 454 301T434 274T408 264T386 293Q381 308
378 319T366 350T338 411Q322 438 315 451T303 469T288 470Q275 466 263 455T236 420T200 349Q189 316 169 298T134 287Z" />
<glyph unicode="_" horiz-adv-x="446" d="M114 -14Q108 -14 99 -14T79 -9Q64 -9 56 -3T43 11Q32 26 44 33T94 44Q111 48 144 50T218 54T293 57T349 58Q375 58 388 55T412 40Q427 25 419 9T388 -4Q383 -4 369 -5T339 -7T310 -9Q304 -9 279 -10T221 -12T158 -13T114 -14Z" />
<glyph unicode="`" horiz-adv-x="353" d="M340 426Q327 416 320 419T308 446Q304 461 293 479T271 517T256 552T259 578Q264 586 277 597T305 604Q314 601 324 586T344 550T361 506T374 465Q375 462 369 454T354 437T340 426Z" />
<glyph unicode="a" horiz-adv-x="446" d="M124 21Q120 29 107 37T93 49Q93 53 89 61T80 74Q75 80 83 103T107 161T142 230Q150 238 158 251T170 268Q170 272 173 275T180 279L188 295Q190 299 200 311T226 337T256 365T282 384Q303 398 325 397T364 383Q367 380
377 371T401 351T425 331L462 298L445 248Q432 208 438 178T457 126Q462 115 470 109T493 101Q501 100 508 95T515 79Q515 55 507 45T488 32Q455 28 425 39T371 96Q367 102 361 118T353 140Q349 135 343 128T330 114Q259 42 209 21T124 21ZM179 104Q186 103 201
111T241 140Q275 169 297 188T340 237L362 273Q352 296 344 303T328 310Q315 310 297 294T257 246T206 167Q193 145 186 125T179 104Z" />
<glyph unicode="b" horiz-adv-x="444" d="M229 6Q209 8 198 16T180 38Q172 47 171 52T170 61Q175 61 179 61T184 65Q184 68 187 69T195 69Q214 68 241 82T302 121T368 177Q394 211 404 227T415 251T411 269Q407 277 392 277T346 257Q303 230 277 207T229 155Q221
145 212 134T196 114T189 106Q189 102 178 96T158 90Q154 92 148 97T139 112Q130 119 124 124T118 143Q118 151 120 163T128 194Q134 220 141 248T154 297T164 320Q164 320 168 329T172 350Q174 362 178 371T183 384Q187 387 195 408T215 463Q215 466 222 482T239
521T259 568T277 612Q289 629 297 646T313 667Q318 668 330 663T356 650T374 634Q377 629 377 624T373 608T356 571T322 499Q294 439 279 399T254 330T234 275L229 253L255 282Q265 292 276 301T300 319Q308 325 321 331T348 343T367 349Q370 350 387 353T422 357Q444
357 460 342T490 304Q501 283 498 251T481 195Q476 191 471 185T466 174Q465 167 448 146T414 105Q396 86 370 68T319 35T275 14Q267 13 252 11T229 6Z" />
<glyph unicode="c" horiz-adv-x="364" d="M221 -4Q192 -9 164 1T117 33T98 88Q95 118 103 159T129 243T170 314Q190 338 210 358T246 385Q260 391 280 394T309 398Q325 394 344 385T364 364Q364 364 366 362T369 359Q375 359 382 345T394 312T392 282Q388 263
377 245T357 227Q353 227 350 227T346 221Q346 216 336 216T314 220T300 232Q300 237 302 245T308 272Q314 300 309 309T284 311Q259 297 243 279T215 227T187 135Q181 112 185 99T193 85Q207 81 223 83T251 92Q267 100 279 109T307 130Q312 133 316 141T328 154Q336
166 348 166T373 167Q381 165 390 157T403 142T402 131Q398 131 398 129T397 126Q399 122 389 108T362 78T332 51T311 39Q301 39 301 33Q301 31 287 23T254 7T221 -4Z" />
<glyph unicode="d" horiz-adv-x="402" d="M374 -19Q361 -22 349 -13T331 8Q325 24 324 38T321 72L320 106L279 69Q245 37 216 24T162 10Q151 12 136 24T108 52T90 78Q84 92 86 117T98 172T122 231T156 281Q189 331 238 343T325 335Q343 326 351 328T361 341Q365
357 370 371T384 413Q409 489 427 532T461 607Q472 630 483 639T502 647Q513 647 529 639T551 617Q555 608 555 598T548 577Q535 553 518 514T483 427T450 334T425 253Q419 231 416 197T411 128T410 65T413 29Q419 9 413 -1T396 -14T374 -19ZM209 102Q223 107 234
114T260 132Q290 155 303 172T325 214Q330 229 326 240T310 261Q299 270 282 269T243 247Q219 225 202 196T174 113Q172 103 181 99T209 102Z" />
<glyph unicode="e" horiz-adv-x="334" d="M293 20Q263 3 230 1T167 9T120 44Q110 57 101 85T98 163Q104 209 126 256T182 339T254 388Q268 393 282 395T321 396Q344 393 362 385T388 366Q404 350 409 335T413 306Q408 274 385 237T319 182Q302 175 279 173T216
179Q192 184 185 174T178 135Q180 117 186 104T211 85Q234 81 244 84T269 95Q277 100 284 106T299 118T312 127Q317 131 322 132T332 133Q343 132 353 121T366 100Q366 92 356 78T330 48T293 20ZM280 243Q287 246 300 257T325 280T336 300Q336 311 322 319T284
322Q276 320 265 311T243 291T224 269T213 252Q217 247 229 244T255 241T280 243Z" />
<glyph unicode="f" horiz-adv-x="300" d="M146 -121Q140 -125 119 -112T84 -82Q77 -74 75 -65T76 -31Q80 -20 80 -10T81 4Q81 10 84 32T92 78T99 116Q99 117 100 123T103 132Q105 141 108 154T114 189Q122 214 127 238T133 272Q133 290 147 298Q148 303 153 313T162
331Q182 388 195 422T222 481Q228 498 235 516T251 544Q258 558 275 578T313 618T345 646Q367 657 386 664T426 671Q445 671 459 663T503 628Q513 615 513 603T508 583Q501 567 487 544T460 502T441 482Q429 475 416 478T403 496Q403 503 403 509T404 515Q407 528
411 538T420 555Q428 568 425 580T399 590Q396 588 388 581T370 564T353 546T346 534Q346 534 341 524T324 500Q317 490 312 481T307 467Q307 463 306 460T301 457Q301 457 298 447T286 423Q282 413 278 405T269 392L268 390Q268 390 264 379T254 355T249 341Q249
337 261 337T290 340T323 348Q337 352 343 352T362 348Q370 343 375 331T382 306T383 287Q382 283 361 276T318 265Q300 261 278 257T238 248T220 239Q216 239 214 234T211 225Q211 212 206 204Q204 198 200 180T191 140T183 100T179 75Q173 68 172 58T171 39Q167
31 166 25T165 14Q165 13 165 10T164 4Q163 -6 162 -22T160 -55L157 -84Q156 -97 154 -106T146 -121Z" />
<glyph unicode="g" horiz-adv-x="364" d="M214 -200Q186 -211 156 -197T103 -151Q99 -145 91 -130T76 -96T65 -65T64 -50Q68 -39 82 -37T110 -38T126 -48Q129 -55 132 -62T139 -76T148 -88Q159 -105 172 -111T192 -113Q209 -100 217 -83T240 -21Q251 16 259 43T276
93Q279 105 283 113T292 126H298Q276 112 261 98T220 73Q214 66 191 65T145 70Q131 78 123 86T109 106T97 132Q90 147 95 181T113 249Q125 274 148 303T197 355T244 385Q252 389 272 394T310 395Q327 393 336 388T365 365Q378 352 397 332T421 297Q428 282 424
265T410 234Q401 221 391 208T376 172Q371 142 357 105T335 35L319 -27Q294 -112 264 -150T214 -200ZM193 144Q213 145 227 148T255 164T285 203Q302 227 309 247T314 292Q313 308 305 313T284 316Q265 313 250 301T215 262Q200 242 190 214Q180 184 181 166T193
144Z" />
<glyph unicode="h" horiz-adv-x="473" d="M139 38Q132 37 124 43T108 55Q98 67 94 76T90 96T92 122Q97 138 104 165T121 223Q123 235 128 251T140 283T149 307Q156 332 163 355T182 408T209 484Q231 544 242 574T258 617T265 638Q265 646 276 653T297 661Q311
660 324 645T342 608T335 566Q319 530 304 486T273 397T243 316Q242 311 237 299T227 279Q223 271 220 264T216 257Q215 251 212 240T206 221Q205 216 203 208T200 192Q205 198 214 206T237 228Q253 242 265 252T289 270Q300 278 309 285T319 292Q321 295 323 299T329
304Q331 306 336 309T346 317Q355 323 365 327T386 333T407 335Q419 335 432 326T456 299Q466 286 468 269T469 222Q469 214 465 192T458 159L449 125H457Q468 129 478 126T489 123Q494 120 498 116T507 110Q513 102 505 87T487 66Q463 50 445 46T406 53Q387 66
381 84T375 133Q379 177 380 196T370 216Q358 216 338 205T292 174T243 131T199 83Q187 68 173 54T139 38Z" />
<glyph unicode="i" horiz-adv-x="196" d="M103 17Q95 25 92 41T89 72T94 96Q94 104 96 108T98 117Q97 121 100 131T106 150Q113 166 122 191T140 243T155 289T162 313Q162 325 178 326Q190 330 207 316T234 286Q242 278 240 265T227 228Q223 220 218 202T210 171Q206
163 201 149T191 121Q189 116 187 103T182 75T174 53Q165 12 143 5T103 17ZM211 418Q200 426 195 437T189 458T190 469Q200 480 207 498T224 531Q226 534 229 539T237 546Q249 554 270 545T302 520Q311 501 308 481T286 439Q271 419 248 414T211 418Z" />
<glyph unicode="j" horiz-adv-x="213" d="M65 -209Q43 -231 9 -231T-50 -205Q-73 -173 -81 -144T-85 -95T-64 -76Q-59 -76 -50 -80T-32 -90T-24 -104Q-24 -119 -21 -130T-5 -143Q6 -147 17 -141T40 -116Q50 -103 62 -75T86 -17T105 33Q117 74 124 116T141 208Q145
235 150 254T156 278Q156 282 157 294T163 317Q163 332 167 351T172 374Q175 377 184 375T204 367T220 357Q228 349 234 340T242 310T240 247Q240 241 237 223T229 181T219 137T211 101Q207 86 202 68T196 43Q195 37 189 20T177 -15T169 -39Q168 -43 164 -58T145
-104Q140 -116 124 -138T91 -181T65 -209ZM213 476Q202 489 206 518T227 568Q240 583 262 585T298 576Q309 559 312 542T304 509Q279 481 253 473T213 476Z" />
<glyph unicode="k" horiz-adv-x="374" d="M128 -3Q120 0 107 13T84 43T74 71Q79 82 87 110T107 173Q115 184 119 198T128 225Q136 243 146 266T165 313T183 355Q197 385 206 407T225 452T246 501Q261 532 273 562T295 617T307 651Q306 659 309 662T317 667Q322
670 333 671T348 672Q360 670 372 653T385 623Q385 607 370 564T325 461Q290 386 273 345T249 287T244 265Q244 265 252 268T276 282Q287 289 301 300T328 320T350 331Q355 335 364 341T381 352Q400 366 411 361T431 344Q442 331 440 317T408 279Q386 263 361 249T316
223T286 205Q286 205 295 192T312 167Q320 151 332 127T350 92Q361 76 372 71T407 74Q422 78 432 74T450 59Q454 51 454 43T441 24Q413 5 387 -8T336 -6Q315 10 297 30T255 81Q255 85 249 98T241 113Q237 121 233 127T228 134Q225 145 221 152T209 160Q205 157
200 150T190 133Q184 118 178 104T168 73T163 33Q164 22 154 10T128 -3Z" />
<glyph unicode="l" horiz-adv-x="178" d="M142 -11Q123 -16 108 -1T87 45T89 112Q94 124 97 135T100 154Q102 164 108 183T121 224T134 261T143 282Q147 282 150 289T153 303Q153 311 156 321T164 335Q164 340 166 346T169 357Q169 361 171 365T174 373Q181 386
192 414T217 478T243 547T262 604T270 633Q270 641 276 648T290 655Q293 658 304 659T319 661Q319 661 323 657T335 645Q343 638 350 629T358 608Q358 595 355 583T342 551T314 490Q306 470 297 453T288 431Q288 427 285 419T277 399Q273 391 266 376T252 343T239
313T234 298Q234 294 234 290T229 282Q225 282 225 277T224 271Q224 261 208 218Q192 163 179 117T165 43Q165 19 158 6T142 -11Z" />
<glyph unicode="m" horiz-adv-x="569" d="M566 24Q559 26 544 37T518 70T507 127Q508 157 511 169T508 183Q503 184 488 174T449 142T391 84Q379 74 365 60T336 38T310 41L300 50Q293 56 288 66T285 83L313 161Q325 187 329 199T334 214T328 216Q322 215 311 206T296
190Q292 190 286 182T273 168Q267 162 252 146T220 111Q207 99 190 79T160 43T144 27Q126 28 112 39T92 66Q86 77 91 106T110 201Q114 216 117 227T125 249T134 274T149 308Q154 322 153 334T151 355Q151 370 160 379T182 391T201 393Q229 390 239 373T250 340Q251
325 246 313T238 293L227 266Q217 243 213 233T208 219T207 212Q208 209 216 215T235 231T257 250Q275 265 295 280T336 308T369 324Q386 321 400 307T419 283Q424 268 421 256T415 234Q414 230 411 219T405 199T402 189Q402 189 408 195T424 209T444 225Q494 263
523 273T574 256Q586 245 589 226T593 175Q594 162 595 146T599 118T604 103Q607 99 615 96T630 90Q644 83 645 65T631 36Q616 27 600 25T566 24Z" />
<glyph unicode="n" horiz-adv-x="459" d="M443 24Q421 26 407 33T383 64Q379 80 379 97T382 131T384 160Q384 162 384 168T384 179Q382 194 377 197T358 196Q337 186 313 170T262 132T207 86Q185 62 175 47T153 32Q145 28 136 34T117 48Q110 56 101 68T89 85Q89
101 91 114T99 141T113 173Q117 180 120 187T129 204Q133 218 140 236T155 270Q166 296 172 315T182 356Q181 358 183 362T189 367H190H191Q198 372 217 369T247 357Q268 339 267 310T237 234Q230 218 223 205T215 186Q215 186 223 192T242 206T261 220Q266 225
283 238T320 267T352 290Q363 298 380 306T401 315Q411 315 425 308T452 292T467 274Q467 270 466 264T465 252Q464 236 464 214T465 169T461 128Q461 128 462 127T464 122Q463 121 463 119T464 116Q466 109 468 102T475 87T484 65Q483 52 470 40T443 24Z" />
<glyph unicode="o" horiz-adv-x="362" d="M168 7Q155 7 148 12T129 26Q110 46 99 69T90 109Q93 117 93 124T92 132Q87 137 89 138T93 144Q99 144 97 155Q95 163 103 189T127 240Q133 250 145 266T171 299T198 326Q223 347 244 360T288 378Q310 383 333 383T372
367Q395 357 404 340T417 296Q420 266 411 223T362 122Q337 86 313 66T260 29Q239 15 215 12T168 7ZM270 129Q292 148 301 171T322 225Q326 231 327 245T328 272T321 288Q312 295 303 292T280 278Q250 253 225 221T189 141Q186 116 194 104T222 96T270 129Z" />
<glyph unicode="p" horiz-adv-x="378" d="M61 -233Q57 -233 50 -233T37 -225Q33 -220 25 -206T22 -165Q27 -148 30 -132T33 -107Q33 -103 35 -92T38 -75Q43 -67 46 -53T49 -28Q49 -16 61 -6Q61 2 64 14T68 30Q71 44 81 79T107 160T138 248T165 321Q177 349 185
373T193 407Q193 411 195 413T204 424Q214 434 230 432T258 421Q266 408 269 398T269 365Q269 350 262 338T250 318T246 311Q290 338 325 340T385 329T423 289T436 235Q436 223 428 203T410 166T394 142Q390 142 386 136T378 121Q370 111 352 99T314 79T287 74Q287
74 285 72T282 65Q282 63 268 57T235 46T200 41Q179 41 170 49Q168 47 166 43T163 36Q163 30 159 17T148 -6T137 -17Q137 -17 135 -20T137 -28Q137 -28 137 -39T131 -59Q131 -67 128 -83T121 -107Q121 -119 118 -130T110 -142Q106 -143 105 -154T104 -171Q103 -196
88 -214T61 -233ZM189 117Q197 117 218 124T262 141T298 163Q324 186 338 208T336 257Q328 271 311 269T272 252T229 217Q217 204 207 187T191 154T183 128T189 117Z" />
<glyph unicode="q" horiz-adv-x="377" d="M246 -231Q234 -223 222 -213T205 -183Q200 -156 204 -115T220 -24T251 79Q256 87 262 101T267 119Q221 95 198 84T158 72Q145 72 129 87T102 124T90 161Q90 177 105 209T141 270Q149 284 171 303T217 341T255 367Q263
372 271 375T287 383Q295 388 302 391T313 394Q329 398 350 397T384 391Q396 383 413 360T435 317Q435 307 434 299T428 276T408 232Q392 208 382 185T371 158Q366 145 357 124T339 86T328 62Q326 52 319 27T305 -29T291 -87Q283 -131 283 -164T291 -209Q295 -221
279 -230T246 -231ZM170 151Q202 147 231 166T291 216Q308 232 322 252T343 290T347 316Q343 324 323 315T270 281Q234 253 214 231T181 180L170 151Z" />
<glyph unicode="r" horiz-adv-x="360" d="M119 27Q110 34 100 45T92 76Q95 104 100 125T112 175Q114 187 122 216T143 279T168 343T191 389Q202 399 223 399T253 391Q264 382 260 360T232 290Q227 278 220 265T209 243T211 235Q217 246 233 260T267 289T301 314T323
328Q331 333 341 336T356 342Q379 353 406 351T440 333Q441 325 446 321T452 317Q456 317 456 314T457 311Q457 304 444 291T414 277Q401 276 391 272T367 262Q329 240 299 223T236 171Q229 163 221 156T205 136Q200 131 195 114T187 82T183 63Q183 63 180 54T170
35Q158 19 147 15T119 27Z" />
<glyph unicode="s" horiz-adv-x="350" d="M153 -6Q119 8 104 23T91 51Q93 57 98 62T120 67T175 57Q186 57 197 58T217 61T233 66Q238 68 236 71T229 79Q225 84 220 85T211 87Q209 92 203 97T187 108Q165 126 147 140T133 161Q133 165 133 165T133 166Q126 166
120 185T114 221Q114 241 122 261T144 299T172 331Q191 349 212 366T259 398T316 420Q330 423 348 423T374 418Q382 423 394 416T418 395T436 369Q436 357 436 340T433 309T424 296Q424 296 422 296T419 290Q419 280 404 267Q385 254 368 246T342 245Q336 249 331
253T322 263Q322 263 320 267T317 276Q317 280 320 283T323 287Q337 300 344 311T355 330T358 344Q358 350 356 351T345 353Q340 353 324 345T289 326T261 305Q257 298 256 296T250 294Q250 298 245 293T233 279T219 260T208 244Q207 235 204 228T201 212Q202 202
211 193T237 170Q272 144 289 129T314 105T323 87Q340 56 327 34T287 -1Q277 -6 252 -10T200 -15T153 -6Z" />
<glyph unicode="t" horiz-adv-x="331" d="M171 -1Q160 1 147 12T124 38T110 63Q110 65 108 68T105 71Q101 74 101 97T103 150T110 196Q115 212 125 239T142 289L169 347L129 358Q122 360 118 366T113 376Q113 384 122 399T135 414Q140 413 153 413T180 414T196
416Q200 418 204 421T210 432Q215 443 219 449T230 467Q237 480 241 489T256 514Q261 521 267 531T282 548Q291 556 311 559T347 550Q355 540 356 531T348 508Q340 491 330 478T310 447Q294 425 304 422T360 426Q389 431 402 420T417 392Q420 368 412 363T366 358Q342
354 325 354T300 353Q287 352 283 352T271 350Q263 348 260 344T252 331Q248 327 240 310T220 273Q206 231 197 193T180 116Q177 97 181 89T207 78Q218 77 239 78T274 84Q285 89 297 94T319 106Q328 111 337 116T346 122Q351 130 360 120T374 97Q374 85 369 69T332
34Q287 6 242 0T171 -1Z" />
<glyph unicode="u" horiz-adv-x="370" d="M336 2Q326 12 320 29T308 70Q306 78 306 88T306 104Q303 97 297 86T284 70Q280 66 266 55T238 36Q205 15 180 16T135 42Q119 55 109 75T105 123Q107 158 115 191T148 281Q169 322 180 345T194 372Q209 377 231 372T255
352Q261 342 255 315T231 252Q217 218 205 186T190 132T201 105Q210 100 227 106T269 142T320 237Q328 257 332 272T337 307Q335 319 343 332T364 352Q368 357 375 361T384 361L400 362Q404 363 409 354T419 341Q430 332 429 302T405 218Q386 177 380 156T372 115Q372
97 375 85T393 59Q404 52 405 36T406 7Q404 -2 391 -5T362 -7T336 2Z" />
<glyph unicode="v" horiz-adv-x="331" d="M179 53Q172 59 161 89T139 159T122 233Q118 253 114 267T106 290Q101 308 109 328T130 355Q135 358 148 359T166 360Q178 356 188 324T206 238Q210 207 212 193T215 174Q219 166 220 155T230 151Q234 155 242 165T263
191Q284 219 296 237T325 276Q332 286 344 298T368 320T388 333Q412 337 417 316T403 266Q395 254 391 244T382 229Q374 213 357 189T324 144T302 117Q298 113 285 102T259 74Q235 51 213 46T179 53Z" />
<glyph unicode="w" horiz-adv-x="517" d="M170 30Q155 30 140 52T117 108T110 173Q110 205 113 224T121 263Q124 269 124 273T126 286T133 316Q137 333 141 344T149 359Q161 375 176 378T203 375T218 354Q224 349 224 332T222 296T213 269Q211 264 209 243T204
199T198 162Q195 144 200 140T220 148T259 197Q279 227 288 244T303 275T316 308Q321 324 325 334T334 348Q345 364 363 362T394 351Q406 339 408 319T399 274Q391 258 384 236T372 192T367 154Q367 134 372 131T386 127Q398 127 409 135T441 166Q450 175 463 193T488
231T509 266T518 286Q518 292 527 303Q533 311 536 315T550 325Q558 329 568 327T585 316Q590 312 592 297T595 269Q592 258 586 239T574 202T562 178Q558 174 548 164T530 141Q505 111 494 102T475 85Q454 64 427 52T376 38T338 46Q307 62 307 100Q307 108 305
114T302 121Q298 121 292 119T278 105Q269 88 248 71T204 42T170 30Z" />
<glyph unicode="x" horiz-adv-x="343" d="M391 -12Q387 -12 381 -11T370 -6Q366 -6 356 -3T338 4Q328 8 311 20T277 48T249 76T237 95Q237 100 232 100Q232 100 229 103T226 111Q226 121 216 121Q216 121 203 107T169 73Q141 45 128 33T106 20Q98 20 86 27T64
48T54 79Q54 79 74 102T123 149L174 201L163 239Q156 255 149 272T137 302Q125 319 125 323T132 340V340V340Q140 348 158 356T189 357Q195 357 205 341T223 305T232 277Q232 261 238 260T269 275Q281 286 288 293T295 301Q298 304 313 316T344 341T365 356Q373
362 385 357T406 341T416 319Q416 307 409 293T382 267Q364 254 355 246T335 229T303 200L277 179L293 152Q297 145 304 136T319 123Q325 115 340 103T369 80T385 70Q389 70 394 67T406 60Q414 52 413 35T406 3T391 -12Z" />
<glyph unicode="y" horiz-adv-x="341" d="M86 -208Q50 -215 17 -211T-38 -193T-66 -164Q-72 -141 -60 -130T-32 -117T-10 -121Q-2 -126 15 -136T59 -141Q82 -136 100 -119T132 -83Q140 -71 159 -40T198 28T233 98Q236 106 240 117T250 135Q256 147 260 157T266
172Q267 177 275 192T290 222Q295 237 305 266T325 313Q337 336 344 350T361 368V368V368Q370 375 378 375T397 369Q409 357 416 346T423 318T406 273Q398 249 389 230T374 204Q369 192 363 178T351 151Q333 111 320 86T297 40T276 -9Q253 -46 232 -79T186 -142Q176
-151 158 -165T120 -192T86 -208ZM211 18Q196 20 179 38T150 76T140 104Q140 109 140 112T140 115Q134 115 131 132T126 177T124 233T127 286Q131 303 131 323T132 356Q131 372 138 382T150 395V395V395Q187 411 204 378T216 273Q214 233 214 197T221 134T245 97Q252
93 250 80T241 53T226 28T211 18Z" />
<glyph unicode="z" horiz-adv-x="315" d="M140 11Q102 6 83 6T53 10T34 21Q24 28 23 49T53 103Q72 126 92 146T128 180Q135 186 142 191T168 208T225 247Q244 262 252 268T265 277T278 287Q271 288 252 290T212 291Q184 291 180 291T168 294H153Q148 294 136 301T113
317T101 334Q101 334 107 341T117 352Q125 357 129 360T138 359Q138 359 163 360T212 363Q270 362 297 360T338 351T365 333Q381 317 386 297T380 265Q376 261 373 257T366 252Q366 252 352 243T318 221Q299 208 281 197T258 181Q251 177 241 171T227 160Q224 156
214 146T191 128Q182 120 172 110T154 93T146 85Q146 85 161 87T201 92T255 93Q302 94 329 95T371 97T394 92Q401 90 404 78T409 54T408 39Q404 39 377 37T315 32Q269 28 226 22T140 11Z" />
<glyph unicode="{" horiz-adv-x="330" d="M176 -142Q167 -128 167 -134Q167 -134 156 -124T140 -106Q132 -95 131 -85T130 -58Q130 -48 130 -39T130 -30Q135 -25 136 -18T138 -4Q140 4 148 29T167 82T185 127Q196 148 202 169T209 201Q209 217 196 228T159 243Q129
243 139 272Q143 284 155 291T181 294Q196 294 215 309T252 349T279 404Q291 436 297 466T307 546Q310 585 319 613T344 664T384 711Q398 729 417 737T447 751Q467 759 490 759T521 754Q526 752 531 740T540 714T541 699Q536 699 525 697T498 694Q479 690 466 681T433
655Q417 634 412 625T405 597Q398 579 395 568T390 542T385 498Q382 468 380 451T374 419T360 381Q347 344 331 317T291 270Q274 260 273 256T280 241Q280 237 285 228T290 208Q297 192 291 169T261 92Q254 77 248 61T242 37Q237 30 232 13T223 -18Q219 -39 216
-49T213 -63Q213 -82 258 -75Q275 -70 281 -74T294 -88Q305 -98 301 -113T274 -136Q259 -144 239 -147T201 -149T176 -142Z" />
<glyph unicode="|" horiz-adv-x="330" d="M150 -148Q131 -153 116 -138T95 -94T97 -28Q102 -16 105 -5T108 14Q110 22 118 49T137 113T160 184T180 244T191 272Q195 272 198 279T201 293Q201 301 204 311T212 325Q212 330 214 336T217 347Q217 351 219 355T222
363Q228 374 240 404T269 476T303 562T335 647T359 713T368 743Q368 751 379 759T399 768Q402 771 406 772T415 773Q415 773 419 769T431 757Q439 750 448 737T457 711Q457 698 454 688T442 659T414 600Q411 592 402 572T383 527T362 479T345 439T338 421Q338 417
335 409T327 389Q323 381 316 366T302 333T289 303T284 288Q284 284 284 280T279 272Q275 272 275 267T274 261Q274 251 258 208Q251 186 241 151T220 77T198 0T182 -66T175 -105Q175 -129 167 -136T150 -148Z" />
<glyph unicode="}" horiz-adv-x="330" d="M141 -126Q114 -127 92 -113T70 -87Q70 -82 73 -79T76 -76Q81 -80 86 -80T91 -76Q91 -76 101 -70T128 -56Q157 -51 169 -46T186 -28T196 9Q199 21 201 31T204 46Q204 49 205 78T205 147Q203 191 203 211T204 241T212 261Q220
269 221 276T221 294Q213 314 215 330T225 353Q242 372 252 383T269 405T286 435Q312 476 331 516T357 587Q357 591 357 594T357 597Q361 606 360 615T348 640Q340 656 328 664T290 679Q274 682 272 697T279 722Q283 730 295 735T320 742T337 739Q345 731 352 731Q355
731 369 720T400 693T421 668Q425 665 428 648T433 619Q436 607 436 599T435 580T425 549Q411 503 400 473T383 437Q379 434 376 433T372 428Q372 424 363 408T343 374T322 347Q318 343 315 336T311 328Q311 328 310 328T304 324Q297 320 297 313T304 289Q306 280
310 273T318 258Q318 244 313 244Q300 237 294 224T286 188T286 127Q287 106 286 82T284 40T279 15Q272 -15 267 -35T256 -55Q256 -55 254 -55T253 -59Q253 -73 236 -88T192 -114T141 -126Z" />
<glyph unicode="~" horiz-adv-x="446" d="M361 187Q336 187 318 195T279 216Q262 227 245 240T214 253Q200 253 192 245T175 227T153 216Q152 212 147 206T138 199Q118 199 108 212T97 236Q97 241 105 256T133 289T185 320Q216 325 236 322T269 309Q292 292 312
280T351 268Q362 268 375 273T404 286L430 297Q435 299 439 300T448 302Q459 305 468 305Q479 305 489 295T500 271Q500 265 497 258T483 239L462 227Q437 217 420 209T391 196Q370 187 361 187Z" />
<glyph unicode="&#xa0;" horiz-adv-x="242" />
<glyph unicode="&#xa1;" horiz-adv-x="210" d="M26 -234Q26 -234 17 -230T1 -218Q-6 -210 -7 -198T-9 -174Q-7 -154 5 -130T34 -78Q44 -59 53 -42T63 -21Q63 -17 67 -9T76 11Q82 21 88 35T97 61T101 75Q103 79 104 83T109 91Q113 91 113 96T114 102Q114 106 118
120T133 155Q152 208 160 239T170 293Q172 317 181 325T198 338Q227 343 242 314T240 214Q234 202 230 191T226 172Q223 159 216 142T202 109T192 88Q188 88 184 82T179 67Q179 59 176 49T168 35Q168 31 164 25T160 14Q160 10 158 8T155 0Q146 -16 132 -47T103
-114T78 -176T68 -209Q67 -217 63 -224T50 -230Q46 -233 38 -233T26 -234ZM236 400Q203 421 207 446T251 492Q272 500 286 500T317 487Q337 467 331 447T295 406Q275 394 266 394T236 400Z" />
<glyph unicode="&#xa2;" horiz-adv-x="450" d="M214 -54Q186 -60 184 -28T197 59Q206 72 209 84T214 103Q217 113 230 139T258 196T286 250T302 278Q306 278 311 285T317 299Q317 307 320 317T329 330Q329 335 333 341T338 351Q339 354 341 356T344 363Q351 374
364 400T395 460T431 531T464 600T489 654T499 680Q505 696 519 693Q525 699 535 695Q535 695 538 692T549 681Q554 672 555 663T556 642Q554 629 549 620T533 592T501 536Q496 527 484 508T459 468T437 432T427 415Q427 410 411 384Q407 376 399 361T382 330T367
302T360 288Q360 281 351 272Q347 272 346 267T345 261Q345 257 340 244T324 214Q313 186 298 153T268 86T243 27T230 -13Q229 -37 226 -44T214 -54ZM328 174Q315 168 298 169T252 180Q250 180 238 189T214 210T198 230Q182 253 188 298T220 406Q227 421 241 444T270
486T291 509Q291 509 302 513T330 526Q335 528 347 531T373 537T392 539Q412 538 433 525T469 494T478 463Q478 461 473 451T462 429T452 413Q447 407 435 408T412 416T401 435Q399 443 387 450T374 457Q366 457 353 441T326 405Q308 387 300 367T290 329T284 302Q280
292 284 277T294 260Q303 259 318 261T351 268T387 278T419 290Q438 302 452 300T473 295Q484 291 484 278T475 251T449 227Q433 219 421 210T408 195Q404 195 400 193T392 191Q390 191 376 188T348 181T328 174Z" />
<glyph unicode="&#xa3;" horiz-adv-x="450" d="M439 -61Q409 -76 369 -73T296 -48Q293 -45 284 -41T267 -36Q260 -31 244 -30T216 -26Q194 -21 185 -21T160 -26Q133 -35 101 -30T47 -12T24 16Q24 33 34 42T73 54Q105 57 116 59T130 64T136 75Q142 95 148 123T164
208Q167 234 177 277T202 368T238 459Q264 512 292 557T348 631T403 665Q430 673 462 663T512 636Q513 643 522 633T541 608T552 581Q555 571 558 563T562 555Q566 552 566 546T565 536Q564 528 559 516T539 492Q525 485 508 486T480 497T470 528Q472 545 467 562T448
584Q437 589 430 589T401 572Q392 557 385 551T378 544Q378 544 370 530T351 496Q340 474 326 436T297 357T271 281T254 229Q253 219 249 194T239 140T232 88L234 63L270 51Q281 47 289 39T314 29Q328 20 344 16T374 12Q399 12 418 22T439 39Q443 39 446 43T450
53Q455 53 464 56T480 60Q497 60 507 48T515 17T495 -22T439 -61ZM345 278Q341 278 321 278T274 278T217 278T164 279T129 280Q123 280 114 281T94 286Q79 286 71 292T59 306Q48 322 61 330T111 341Q128 344 162 345T237 347T314 348T371 347Q397 347 417 342T447
325Q462 309 454 293T423 281Q416 280 390 280T345 278Z" />
<glyph unicode="&#xa4;" horiz-adv-x="450" d="M133 18Q128 14 122 21T114 38T115 52Q111 57 115 57T121 56Q116 62 120 72T132 93T145 108Q144 112 147 114T152 125Q163 132 175 132Q175 146 180 149T191 156Q196 161 197 167T193 171Q192 173 187 182T176 194Q174
214 174 237T178 277Q181 277 182 290T191 309Q189 313 193 318T201 325Q202 327 204 328T206 335Q206 335 209 341T219 357Q225 373 228 378T231 387T228 398Q209 413 194 435T182 468Q181 470 179 472T175 479Q166 493 170 507T184 530T198 534Q197 534 206 532T220
518Q224 512 228 507T237 496Q242 497 246 486T258 468Q271 450 280 447T290 442Q292 440 293 443T305 453Q314 458 318 458T329 456T347 455L375 453L409 499Q441 540 459 550T485 546Q493 544 498 529T501 509Q500 511 497 503T489 490Q484 480 477 467T466 447Q454
444 453 438T449 427Q449 427 452 422T464 410Q470 408 474 400T480 374Q486 370 489 359T494 337T493 325Q492 324 492 323T489 314Q491 310 483 291T462 247T431 204L414 184L427 170Q432 162 443 150T465 128T482 119Q486 119 487 107T488 81T484 63Q478 55
462 53T429 69Q408 85 392 109T371 141Q373 150 366 148T353 141Q326 129 310 124T276 122Q265 127 262 126T248 115Q247 111 240 103T225 87T210 72Q203 55 195 47T189 33Q187 31 174 26T148 17T133 18ZM315 202Q341 216 367 237T406 289Q414 306 416 327T410
358Q397 374 370 377Q353 379 345 377T323 368Q303 359 294 347T271 308Q250 279 245 252T254 217Q260 208 277 205T315 202Z" />
<glyph unicode="&#xa5;" horiz-adv-x="450" d="M229 680Q250 698 263 687T283 650T289 595Q292 488 302 433T329 365Q341 362 350 367T373 389T414 433Q442 462 470 494T523 557T569 609T602 638Q606 644 616 648T635 655T645 658Q653 656 654 646T662 625Q664
621 671 613T677 600Q677 597 668 587T649 566T634 551Q621 540 594 513T537 454T488 397Q444 346 410 309T367 265Q366 263 354 263T337 254L295 259L260 303Q240 333 228 359T211 423Q204 447 202 468T200 516T202 585Q203 623 214 647T229 680ZM239 -76Q235
-75 223 -67T200 -52Q193 -44 192 -35T194 -11T205 31Q206 54 214 87T235 142Q235 153 240 172T252 211T266 247L284 299L324 333L376 297Q372 291 369 283T361 256T346 197Q338 170 329 139T311 81T297 37Q285 -8 276 -34T258 -69T239 -76ZM144 107Q138 107 129
107T109 112Q94 112 85 118T72 132Q61 147 74 155T124 168Q141 172 178 174T260 177T344 178T403 179Q429 179 449 175T481 159Q496 144 488 127T457 114Q453 114 440 114T411 113T379 113T354 112Q348 112 321 111T258 109T190 108T144 107ZM524 299Q539 284 532
268T501 255Q496 255 482 254T452 252T423 250Q418 250 397 250T345 249T282 248T224 247T187 247Q181 247 172 247T152 252Q137 252 129 258T116 272Q105 287 117 295T167 308Q184 312 221 314T303 317T387 319T447 320Q473 320 493 315T524 299Z" />
<glyph unicode="&#xa6;" horiz-adv-x="330" d="M312 355Q309 345 295 345T263 352T236 368T232 385Q243 411 261 454T298 546T335 641T364 716T375 751Q375 767 391 767Q394 770 398 771T407 772Q407 772 411 768T423 756Q431 749 444 736T457 710Q457 697 454
687T442 658T414 599Q411 591 402 571T383 526T362 478T345 438T338 420Q338 416 335 408T327 388Q324 383 321 375T312 355ZM147 -148Q119 -155 104 -120T100 -28Q105 -16 108 -5T111 14Q113 22 121 49T140 113T163 184T183 242Q184 250 196 249T224 242T250 228T256
213L254 208Q247 186 237 152T216 80T194 5T178 -58T171 -97Q171 -121 163 -132T147 -148Z" />
<glyph unicode="&#xa7;" horiz-adv-x="385" d="M351 181Q313 171 278 182T228 216Q221 230 221 243T228 260Q236 261 242 260T260 254Q275 241 293 241T325 249T341 271Q335 273 331 282T323 303Q255 380 255 432Q251 444 256 462T270 498T288 528Q314 557 349
579T412 615Q423 615 445 614T474 610Q481 608 489 596T504 568T513 542Q513 535 508 520T498 488Q494 477 489 468T484 454Q483 443 472 442T448 447T431 465Q427 480 426 489T428 510Q439 523 439 527T428 529Q421 529 409 522T383 503T358 474Q346 460 343 452T339
436T340 418Q340 409 345 396T356 374T368 363Q368 363 376 350T400 321Q435 263 423 229T351 181ZM247 1Q209 -8 175 1T125 37Q118 50 118 63T125 81Q133 82 143 78T164 69Q179 59 198 60T232 69T250 90Q249 94 243 104T232 125Q199 157 183 193T167 254Q161 272
173 296T201 334Q218 360 239 374T280 405L320 346Q303 337 286 320T255 287Q241 269 242 259T244 232Q244 218 254 201T272 177Q272 177 281 164T304 140Q339 79 323 46T247 1Z" />
<glyph unicode="&#xa8;" horiz-adv-x="353" d="M235 429Q225 437 220 453T216 476Q218 483 225 501T248 533Q252 536 256 541T266 548Q280 559 294 552T320 524Q331 501 327 486T300 445Q281 420 266 418T235 429ZM390 429Q380 437 375 453T371 476Q373 483 380
501T403 533Q407 536 411 541T421 548Q435 559 449 552T475 524Q486 501 482 486T455 445Q436 420 421 418T390 429Z" />
<glyph unicode="&#xa9;" horiz-adv-x="496" d="M353 73Q283 72 236 99T169 182Q157 203 155 220T147 254Q146 256 146 260T144 265Q143 269 143 280T144 303T145 317Q150 321 149 324T147 328Q143 339 149 364T168 417T191 467T207 491Q209 491 209 494T210 498Q214
504 232 516T274 542T314 564Q383 598 441 577T547 487Q551 472 560 459T570 439Q580 424 586 405T594 371T594 353Q596 350 595 346T595 339Q598 335 598 320T596 287T591 256T586 242Q586 242 584 241T584 238Q586 237 581 230T567 215T552 207Q552 207 552 206T555
203Q558 202 548 190T519 160T481 128T442 107Q439 104 438 102T434 98Q427 88 400 80T353 73ZM288 153Q304 140 338 145T413 174Q429 181 449 196T485 227T500 252Q499 257 500 263T506 270Q515 278 520 301T526 350T519 389Q518 391 514 398T510 409Q510 414
508 418T499 435T472 473Q440 498 414 503T370 505T346 498Q302 485 277 461T240 410T222 360Q213 331 210 315T208 288T219 262Q218 249 222 237T225 221Q226 216 236 201T261 171T288 153ZM354 203Q346 199 333 204T296 216Q294 216 288 222T275 235Q264 252
261 286T276 358Q279 369 289 384T311 415T332 441T343 454Q343 454 348 456T371 465Q378 467 385 468T392 470Q405 469 420 459T448 435T469 408T475 388Q474 386 469 380T460 368Q457 362 447 362T427 368T416 382Q402 402 391 401T371 389T359 366Q346 351 343
333T337 306Q335 296 336 285T341 272Q353 268 361 268T383 277T422 305Q430 311 437 303T451 284T463 272Q462 254 445 238T415 217Q411 217 407 216T399 214Q395 214 379 210T354 203Z" />
<glyph unicode="&#xaa;" horiz-adv-x="350" d="M222 313Q204 313 187 326T164 347L162 349L158 358Q157 359 157 360T156 362Q155 364 154 365T151 368H152Q148 374 154 395T174 447T205 509Q210 514 215 522T224 536L229 543V545Q231 547 234 549T239 552L245
566Q248 571 263 587T298 620T329 645Q347 658 367 657T401 644L455 598L488 569L473 525Q470 515 468 507T465 490Q464 468 469 450T483 417Q493 398 515 395Q523 394 529 389T535 375Q535 354 528 345T512 334Q482 330 456 340T407 390Q403 395 398 410T391 429Q388
425 382 418T371 406Q324 358 287 336T222 313ZM238 397Q243 397 256 404T292 429Q322 455 341 472T380 515L400 547Q390 568 383 573T369 579Q357 579 341 565T306 522T261 453Q250 434 244 416T238 397Z" />
<glyph unicode="&#xab;" horiz-adv-x="646" d="M406 -6Q398 -7 379 -7T328 8Q292 27 275 36T242 64Q208 84 190 105T154 157L122 199L115 237Q123 239 130 252T139 267Q148 278 162 290T198 320T256 369Q293 396 306 410T330 434Q336 441 344 448T356 456Q362
458 370 455T382 448Q393 441 403 438T414 427Q414 427 412 412T402 390Q389 379 374 368T337 338T275 284Q251 263 240 250T225 228T224 205Q230 192 242 175T281 138T353 91Q378 79 395 58T417 17T406 -6ZM616 -6Q608 -7 589 -7T538 8Q502 27 485 36T452 64Q418
84 400 105T364 157L333 199L326 237Q334 239 341 252T349 267Q358 278 372 290T409 320T467 369Q504 396 517 410T541 434Q547 441 555 448T567 456Q573 458 581 455T593 448Q604 441 613 438T624 427Q624 427 622 412T612 390Q599 379 584 368T547 338T485 284Q462
263 451 250T436 228T435 205Q441 192 453 175T491 138T563 91Q588 79 605 58T627 17T616 -6Z" />
<glyph unicode="&#xac;" horiz-adv-x="465" d="M478 129Q468 119 455 118T432 123T425 145L420 201L417 240L388 238Q382 238 358 237T301 235T239 234T195 233Q189 233 180 233T160 238Q145 238 140 249T131 267Q120 282 129 288T175 299Q192 303 225 305T298
309T372 312T427 313Q453 313 465 310T489 296Q509 275 497 263Q499 247 499 230T500 192Q500 167 495 154T478 129Z" />
<glyph unicode="&#xad;" horiz-adv-x="326" d="M178 172Q172 172 163 172T143 177Q128 177 119 183T106 197Q95 212 108 220T158 233Q192 241 217 244T282 247Q308 247 324 242T352 226Q367 211 360 195T329 182Q322 181 303 180T266 177Q255 176 231 174T178 172Z" />
<glyph unicode="&#xae;" horiz-adv-x="496" d="M353 73Q283 72 236 99T169 182Q157 203 155 220T147 254Q146 256 146 260T144 265Q143 269 143 280T144 303T145 317Q150 321 149 324T147 328Q143 339 149 364T168 417T191 467T207 491Q209 491 209 494T210 498Q214
504 232 516T274 542T314 564Q383 598 441 577T547 487Q551 472 560 459T570 439Q580 424 586 405T594 371T594 353Q596 350 595 346T595 339Q598 335 598 320T596 287T591 256T586 242Q586 242 584 241T584 238Q586 237 581 230T567 215T552 207Q552 207 552 206T555
203Q558 202 548 190T519 160T481 128T442 107Q439 104 438 102T434 98Q427 88 400 80T353 73ZM317 211Q311 194 300 193T277 199T259 220T254 242Q256 253 261 267T272 298Q272 306 273 313T276 320Q278 329 283 350T311 401Q311 413 312 418T308 429Q305 434
305 438T316 450Q316 456 333 463T373 468Q385 467 391 466T401 461Q415 460 432 450T449 437Q457 430 461 413T467 388Q467 376 466 369T453 348Q446 335 437 325T411 302L399 289Q400 285 407 279T423 268T437 260Q445 262 449 260T451 240Q444 226 431 215T404
214Q392 216 387 220T375 231Q368 237 364 243T345 263Q345 263 344 263T331 265L323 244Q323 240 322 231T317 211ZM288 153Q304 140 338 145T413 174Q429 181 449 196T485 227T500 252Q499 257 500 263T506 270Q515 278 520 301T526 350T519 389Q518 391 514
398T510 409Q510 414 508 418T499 435T472 473Q440 498 414 503T370 505T346 498Q302 485 277 461T240 410T222 360Q213 331 210 315T208 288T219 262Q218 249 222 237T225 221Q226 216 236 201T261 171T288 153ZM350 315Q367 320 370 331T378 351Q381 353 385
357T398 373Q400 377 401 376T402 387Q406 395 399 400Q395 404 394 406T382 412Q381 411 379 409T369 400Q368 396 369 392T363 384Q361 378 357 362T349 331T350 315Z" />
<glyph unicode="&#xaf;" horiz-adv-x="353" d="M298 453Q292 453 283 453T263 458Q248 458 240 464T227 477Q217 492 229 500T278 513Q312 521 337 524T402 527Q427 527 443 522T471 507Q486 492 479 476T448 462Q441 461 419 460T378 458Q368 457 347 455T298 453Z" />
<glyph unicode="&#xb0;" horiz-adv-x="283" d="M336 406Q298 406 273 417T233 446T210 486Q202 501 198 524T192 557Q192 567 197 587T212 628T229 661Q242 685 264 699T300 726Q315 733 324 736T343 740Q379 740 413 723T470 675T493 602Q493 568 486 546T465
507T434 470Q429 464 413 449T377 420T336 406ZM325 490Q338 490 357 501T393 535T408 592Q407 634 391 648T358 664Q324 666 303 636T281 552Q281 538 285 525T299 503T325 490Z" />
<glyph unicode="&#xb1;" horiz-adv-x="446" d="M170 242Q164 242 155 242T135 247Q120 247 112 253T99 267Q88 282 100 290T150 303Q167 307 200 309T273 313T347 316T402 317Q428 317 448 312T480 296Q495 281 487 265T456 252Q451 252 437 251T407 249T378 247Q372
247 345 246T283 244T216 243T170 242ZM170 7Q164 7 155 7T135 12Q120 12 112 18T99 32Q88 47 100 55T150 68Q167 72 200 74T273 78T347 81T402 82Q428 82 448 78T480 62Q495 47 487 30T456 17Q451 17 437 16T407 14T378 12Q372 12 345 11T283 9T216 8T170 7ZM304
127Q289 116 281 128T268 175Q264 191 262 214T258 264T255 316T254 361Q254 385 259 405T274 435Q289 449 306 442T319 413Q320 406 321 381T324 338Q324 333 325 315T327 274T328 230T329 194Q329 189 329 181T324 161Q324 147 318 139T304 127Z" />
<glyph unicode="&#xb2;" horiz-adv-x="320" d="M210 336Q205 338 194 351T178 371Q178 375 182 386T193 408T201 419Q203 419 207 425T217 439T222 449L232 457L236 459H234L245 470L255 480H254L267 499Q272 504 272 507T281 521Q298 538 311 553T325 572Q325
572 329 576T337 583L356 600Q359 607 366 613T379 626L390 652Q392 659 393 659T382 664H383Q370 667 356 667Q344 667 335 665T309 652Q305 651 301 650T292 646Q286 643 281 641T267 640Q267 640 267 640T261 647L243 671L231 699L268 715Q296 732 327 743T377
747Q385 746 392 745T399 743Q407 742 420 734T445 715T461 693V694Q466 687 471 671T476 646Q476 633 468 617T447 582Q444 577 432 563T404 531T375 499T357 481Q352 478 343 470T323 451T307 433T301 426L304 424Q304 424 310 426Q325 432 342 435T373 440T394
440Q402 442 420 441T451 434Q452 434 453 433T456 432Q457 431 460 431Q468 428 471 423Q474 417 477 414Q485 407 492 398T499 380T485 368T437 369Q431 369 422 369T408 366Q405 365 400 365T386 364Q385 364 383 364T379 363H373Q361 365 347 362T317 354Q308
351 285 346T239 337T210 336Z" />
<glyph unicode="&#xb3;" horiz-adv-x="320" d="M294 298Q244 298 223 315T203 349Q204 364 215 375T247 385Q272 379 295 379T337 384T369 406Q386 425 386 446Q386 456 386 461T375 473Q363 484 337 494T294 505Q287 503 281 506T264 517Q260 522 257 532T251
546L247 552Q246 560 264 575T327 617L332 619H331L337 623Q365 641 379 649T399 662T413 673H412Q422 687 422 686T411 689Q394 691 388 691T378 687Q374 689 362 687T338 682T326 677Q325 675 314 673T290 669T276 668Q272 669 267 680T257 703T253 721Q256 725
266 733T290 750T311 763Q322 766 342 767T383 770T412 770H413Q448 766 475 745T507 697Q510 681 504 666T475 627L471 623L461 616Q453 610 448 608T430 598L418 590L411 585L403 578L396 573L364 559L414 541Q434 531 446 512T466 481Q471 469 473 459T476 437Q476
409 457 381T407 332Q387 319 354 310T294 298Z" />
<glyph unicode="&#xb4;" horiz-adv-x="353" d="M343 435Q334 440 331 456T330 488Q331 493 343 508T374 543T411 577T442 596Q456 597 468 583T481 547Q481 536 471 525T446 503T416 479T390 453Q380 437 368 432T343 435Z" />
<glyph unicode="&#xb5;" horiz-adv-x="370" d="M65 -192Q53 -192 45 -180T32 -153T27 -133Q27 -121 37 -90T60 -16T87 73T109 162Q114 185 122 213T149 281Q172 325 183 344T198 368Q203 374 210 375T225 377Q245 377 253 368T261 344Q261 326 252 299T231 242T209
186T198 142Q198 132 200 126T209 116T225 112Q235 112 248 120T278 153T317 226Q331 258 334 273T338 301Q338 308 345 323T363 350Q375 366 387 366Q389 366 393 365T407 362Q413 363 418 359T429 333Q430 332 430 331T432 327Q433 323 433 320T433 311Q433 295
428 271T410 218Q391 175 384 155T377 115Q377 79 405 57Q414 50 416 43T418 24Q417 21 410 11T391 -7T363 -16Q347 -16 334 3T313 53Q311 61 311 74T311 95Q310 93 305 87T292 72Q274 54 248 35T198 16Q188 16 179 20T161 35Q159 28 157 21T152 6Q133 -56 121
-92T101 -147T91 -171T86 -180Q79 -187 74 -189T65 -192Z" />
<glyph unicode="&#xb6;" horiz-adv-x="424" d="M181 -55Q169 -44 155 -29T150 -2Q150 1 153 10T161 30Q167 52 176 77T195 125T212 158Q216 168 218 180T225 200Q230 211 236 223T248 243Q252 262 257 276T263 291Q252 293 243 292T204 296Q177 306 161 333T151
409Q161 441 173 474T215 530Q245 552 267 566T313 591T367 614Q375 614 402 615T456 621Q500 618 535 612T591 595T608 569Q607 562 607 557T600 544Q597 539 591 524T577 493T562 464Q558 457 548 433T527 379Q514 354 507 335T500 315Q500 315 496 308T487 292Q486
283 477 260T456 214Q446 189 435 162T422 120Q415 107 407 85T388 44L376 2H330Q325 5 318 7T306 16Q304 24 304 29T308 55Q313 65 317 74T326 88Q331 91 332 99T334 109Q334 117 340 127T349 142Q353 154 355 161T357 168Q357 174 366 190Q370 198 375 210T384
234Q387 242 390 253T398 264Q398 267 400 275T403 291Q408 300 412 311T420 330Q425 337 428 341T431 346Q428 346 432 357T445 385Q449 390 450 400T455 424Q462 438 472 460T493 500Q498 517 501 530T505 547Q503 547 493 549T473 550T458 538Q457 534 452 527T434
497Q426 475 414 451T398 412Q391 397 384 381T370 349Q366 342 359 326T347 292Q343 283 335 264T317 220T298 174T279 138Q276 128 274 118T270 102Q270 97 261 73T241 18T219 -40Q212 -50 205 -55T181 -55Z" />
<glyph unicode="&#xb7;" horiz-adv-x="187" d="M146 233Q141 238 137 251T130 277T131 289Q136 290 145 299T160 321T166 341Q166 351 176 353Q188 361 207 356T236 334Q245 315 241 295T219 253Q204 233 182 228T146 233Z" />
<glyph unicode="&#xb8;" horiz-adv-x="353" d="M160 -193Q145 -196 120 -192T74 -181T46 -173Q34 -169 28 -158T23 -134T34 -116T66 -115Q82 -119 100 -125T134 -132T156 -118Q163 -107 155 -96T136 -72Q129 -63 123 -57T105 -40Q97 -29 96 -15T111 18T176 60L232
30Q207 18 192 7T176 -17Q190 -37 207 -55T229 -94Q235 -118 226 -139T198 -174T160 -193Z" />
<glyph unicode="&#xb9;" horiz-adv-x="320" d="M326 303Q324 306 317 310T307 327T309 367Q310 372 311 377T313 386Q318 414 322 429T327 444Q331 446 338 469T354 524Q357 535 360 545T366 566Q369 579 377 598T389 630Q392 638 394 646T400 663Q391 657 381
646T354 621Q346 616 337 611T319 597Q312 591 305 584T289 571Q268 552 258 548T237 551Q225 562 216 579T212 607Q214 608 222 614T242 629T260 644Q268 650 274 655T283 661Q285 661 290 666T303 677Q306 679 317 689T346 712Q350 716 354 719T363 727Q367 730
371 733T379 739Q407 759 433 771T465 782Q466 782 475 775T493 758T504 743Q505 739 504 731T499 716Q496 707 490 687T476 642T461 593T448 552Q446 545 445 539T442 527T439 516T435 507Q434 506 434 504T433 500Q429 490 426 480T419 449Q411 429 404 403T394
360Q393 355 391 350T387 340Q384 330 381 322T374 310Q370 294 358 293T326 303Z" />
<glyph unicode="&#xba;" horiz-adv-x="283" d="M257 298Q244 298 226 311T196 337Q183 353 180 363T180 391Q182 396 181 402T180 409L182 408Q178 412 178 413T181 417L179 416Q179 417 180 417T181 419L187 421Q187 421 186 424T184 429Q185 436 189 452T199
486T213 518Q218 527 229 544T252 578T275 604Q295 623 320 637T365 656H364Q384 662 392 662T413 647Q430 637 445 613T463 566Q465 540 459 506T421 418Q401 387 378 367T332 329H333Q317 316 298 308T257 298ZM274 379Q284 379 296 385T328 415Q345 436 355
457T376 509Q378 515 379 524T381 541Q381 551 380 559T376 569H377Q370 574 359 572T334 557Q313 537 298 509T266 439Q264 429 262 420T259 404Q259 379 274 379Z" />
<glyph unicode="&#xbb;" horiz-adv-x="708" d="M457 -15Q451 -17 441 -9T425 2Q415 10 405 10T392 19Q392 19 394 27T404 41Q418 53 430 64T464 94T524 148Q559 180 579 201T597 242Q588 262 560 293T461 363Q437 375 417 394T391 429T400 450Q408 451 436 451T496
438Q532 419 549 410T582 382Q616 363 635 341T670 289L694 247L701 217Q696 216 691 208T682 191T677 181Q668 170 654 156T616 122T557 72Q520 45 507 31T483 7Q477 0 470 -7T457 -15ZM236 -15Q230 -17 220 -9T204 2Q194 10 184 10T171 19Q171 19 173 27T183
41Q197 53 209 64T243 94T302 148Q337 180 357 201T375 242Q366 262 338 293T239 363Q215 375 196 394T170 429T179 450Q187 451 215 451T274 438Q310 419 327 410T360 382Q394 363 413 341T448 289L472 247L479 217Q474 216 469 208T460 191T455 181Q446 170 432
156T394 122T336 72Q299 45 286 31T262 7Q256 0 249 -7T236 -15Z" />
<glyph unicode="&#xbc;" horiz-adv-x="800" d="M268 -21Q249 -19 238 -6T230 31T260 92Q268 100 274 108T283 122Q288 128 304 148T343 193T388 244T425 286T443 307Q447 306 452 310T459 322Q462 330 468 336T480 343Q482 348 486 352T492 360Q493 363 496 365T501
372Q510 379 534 402T590 458T656 526T720 593T769 645T790 669Q794 682 810 677Q817 681 826 677Q826 677 834 667T848 648Q854 639 854 630T850 613Q846 602 840 595T819 574T774 534Q768 528 752 513T715 478T674 439T641 407T628 392Q625 390 620 385T607 370Q599
363 582 347T550 316T535 300Q533 297 531 294T523 289Q521 290 519 287T516 283Q516 279 507 268T483 243Q467 224 440 191T385 123T335 60T309 20Q302 1 289 -9T268 -21ZM248 203Q246 206 239 210T229 227T231 267Q232 272 233 277T235 286Q240 314 244 329T249
344Q253 346 260 369T276 424Q279 435 282 445T288 466Q291 479 299 498T311 530Q314 538 316 546T322 563Q313 557 303 546T276 521Q268 516 259 511T241 497Q234 491 227 484T211 471Q190 452 180 448T159 451Q147 462 138 479T134 507Q136 508 144 514T164 529T182
544Q190 550 196 555T205 561Q207 561 212 566T225 577Q228 579 239 589T268 612Q275 619 284 625T301 639Q329 659 355 671T387 682Q388 682 397 675T415 658T426 643Q427 639 426 631T421 616Q418 607 412 587T398 542T383 493T370 452Q368 445 367 439T364 427T361
416T357 407Q356 406 356 404T355 400Q351 390 348 380T341 349Q333 329 326 303T316 260Q315 255 313 250T309 240Q306 230 303 222T296 210Q292 194 280 193T248 203ZM714 -51Q705 -44 702 -27T704 16Q707 40 714 69Q716 78 717 81T719 92Q726 108 729 118T732
129Q729 128 724 127T710 121Q697 118 693 117T677 116Q658 116 641 124T616 145Q612 150 608 162T602 187T604 205V204L610 220L617 239Q619 245 621 250T623 254Q623 254 623 256T625 259Q627 263 627 267Q630 275 642 294T669 337T697 380T716 406L717 407Q722
410 732 414T753 421T766 418Q777 408 779 392T780 372Q779 368 774 359T763 342L756 336L753 333H754Q738 308 721 278T689 219Q684 204 682 198T680 190H679Q685 189 691 190T717 198Q731 201 736 201T749 205Q753 205 757 206T761 210H765Q765 213 765 218T766
225L773 244L785 266Q789 274 793 284T805 308L828 370Q836 390 844 391T857 393Q862 393 869 390T877 374V380Q882 373 893 361T900 339Q898 332 896 326T891 314L888 305L882 292Q878 287 878 284T875 277Q864 250 848 212T819 138T799 82Q784 33 780 15T782
-14Q783 -32 768 -45T736 -61T714 -50V-51Z" />
<glyph unicode="&#xbd;" horiz-adv-x="800" d="M238 -21Q219 -19 208 -6T200 31T230 92Q238 100 244 108T253 122Q258 128 274 148T313 193T358 244T395 286T413 307Q417 306 422 310T429 322Q432 330 438 336T450 343Q452 348 456 352T462 360Q463 363 466 365T471
372Q480 379 504 402T560 458T626 526T690 593T739 645T760 669Q764 682 780 677Q787 681 796 677Q796 677 804 667T818 648Q824 639 824 630T820 613Q816 602 810 595T789 574T744 534Q738 528 722 513T685 478T644 439T611 407T598 392Q595 390 590 385T577 370Q569
363 552 347T520 316T505 300Q503 297 501 294T493 289Q491 290 489 287T486 283Q486 279 477 268T453 243Q437 224 410 191T355 123T305 60T279 20Q272 1 259 -9T238 -21ZM248 203Q246 206 239 210T229 227T231 267Q232 272 233 277T235 286Q240 314 244 329T249
344Q253 346 260 369T276 424Q279 435 282 445T288 466Q291 479 299 498T311 530Q314 538 316 546T322 563Q313 557 303 546T276 521Q268 516 259 511T241 497Q234 491 227 484T211 471Q190 452 180 448T159 451Q147 462 138 479T134 507Q136 508 144 514T164 529T182
544Q190 550 196 555T205 561Q207 561 212 566T225 577Q228 579 239 589T268 612Q275 619 284 625T301 639Q329 659 355 671T387 682Q388 682 397 675T415 658T426 643Q427 639 426 631T421 616Q418 607 412 587T398 542T383 493T370 452Q368 445 367 439T364 427T361
416T357 407Q356 406 356 404T355 400Q351 390 348 380T341 349Q333 329 326 303T316 260Q315 255 313 250T309 240Q306 230 303 222T296 210Q292 194 280 193T248 203ZM554 -14Q549 -12 538 1T522 21Q522 25 526 36T537 58T545 69Q546 69 551 75T561 89T566 99L576
107L580 109H578L589 120L599 130H598L611 149Q616 154 616 157T625 171Q642 188 655 203T669 222Q669 222 673 226T681 233L700 250Q703 257 710 263T723 276L734 302Q736 309 737 309T726 314H727Q714 317 700 317Q688 317 679 315T653 302Q649 301 645 300T636
296Q630 293 625 291T611 290Q611 290 611 290T605 297L587 321L575 349L612 365Q640 382 671 393T721 397Q729 396 736 395T743 393Q751 392 764 384T789 364T805 343V344Q810 337 815 321T820 296Q820 283 812 267T791 232Q788 227 776 213T748 181T719 149T701
131Q696 128 687 120T667 101T651 83T645 76L648 74Q648 74 654 76Q669 82 686 85T717 90T738 90Q746 92 764 91T795 84Q796 84 797 83T800 82Q801 81 804 81Q812 78 815 73Q818 67 821 64Q829 57 836 48T843 30T829 18T781 19Q775 19 766 19T752 16Q749 15 744
15T730 14Q729 14 727 14T723 13H717Q705 15 691 12T661 4Q652 1 629 -4T583 -13T554 -14Z" />
<glyph unicode="&#xbe;" horiz-adv-x="800" d="M278 -21Q259 -19 248 -6T240 31T270 92Q278 100 284 108T293 122Q298 128 314 148T353 193T398 244T435 286T453 307Q457 306 462 310T469 322Q472 330 478 336T490 343Q492 348 496 352T502 360Q503 363 506 365T511
372Q520 379 544 402T600 458T666 526T730 593T779 645T800 669Q804 682 820 677Q827 681 836 677Q836 677 844 667T858 648Q864 639 864 630T860 613Q856 602 850 595T829 574T784 534Q778 528 762 513T725 478T684 439T651 407T638 392Q635 390 630 385T617 370Q609
363 592 347T560 316T545 300Q543 297 541 294T533 289Q531 290 529 287T526 283Q526 279 517 268T493 243Q477 224 450 191T395 123T345 60T319 20Q312 1 299 -9T278 -21ZM213 199Q163 199 142 216T122 250Q123 265 134 276T166 286Q191 280 214 280T256 285T288
307Q305 326 305 347Q305 357 305 362T294 374Q282 385 256 395T213 406Q206 404 200 407T183 418Q179 423 176 433T170 447L166 453Q165 461 183 476T246 518L251 520H250L256 524Q284 542 298 550T318 563T332 574H331Q341 588 341 587T330 590Q313 592 307 592T297
588Q293 590 281 588T257 583T245 578Q244 576 233 574T209 570T195 569Q191 570 186 581T176 604T172 622Q175 626 185 634T209 651T230 664Q241 667 261 668T302 671T331 671H332Q367 667 394 646T426 598Q429 582 423 567T394 528L390 524L380 517Q372 511 367
509T349 499L337 491L330 486L322 479L315 474L283 460L333 442Q353 432 365 413T385 382Q390 370 392 360T395 338Q395 310 376 282T326 233Q306 220 273 211T213 199ZM684 -51Q675 -44 672 -27T674 16Q677 40 684 69Q686 78 687 81T689 92Q696 108 699 118T702
129Q699 128 694 127T680 121Q667 118 663 117T647 116Q628 116 611 124T586 145Q582 150 578 162T572 187T574 205V204L580 220L587 239Q589 245 591 250T593 254Q593 254 593 256T595 259Q597 263 597 267Q600 275 612 294T639 337T667 380T686 406L687 407Q692
410 702 414T723 421T736 418Q747 408 749 392T750 372Q749 368 744 359T733 342L726 336L723 333H724Q708 308 691 278T659 219Q654 204 652 198T650 190H649Q655 189 661 190T687 198Q701 201 706 201T719 205Q723 205 727 206T731 210H735Q735 213 735 218T736
225L743 244L755 266Q759 274 763 284T775 308L798 370Q806 390 814 391T827 393Q832 393 839 390T847 374V380Q852 373 863 361T870 339Q868 332 866 326T861 314L858 305L852 292Q848 287 848 284T845 277Q834 250 818 212T789 138T769 82Q754 33 750 15T752
-14Q753 -32 738 -45T706 -61T684 -50V-51Z" />
<glyph unicode="&#xbf;" horiz-adv-x="374" d="M145 -230Q139 -229 132 -229T124 -226Q121 -226 112 -226T95 -226Q83 -222 66 -213T34 -193T12 -174Q5 -152 6 -120T16 -51T39 17T74 72Q80 78 96 92T130 123T158 151Q193 170 218 208T257 282Q268 306 281 314T307
322Q323 321 330 309T337 285Q337 284 339 274T339 255Q339 249 333 236T320 205Q309 186 287 161T247 123Q238 116 234 114T230 111Q230 107 216 96T192 80Q192 80 180 71T159 55Q137 32 126 13T109 -31T95 -94Q94 -128 98 -137T115 -155Q140 -159 163 -153T205
-128T240 -76Q246 -59 246 -53T244 -37Q244 -29 242 -18T239 -2Q244 -1 255 2T281 6T307 -6Q307 -6 314 -15T324 -30Q330 -38 330 -45T329 -68Q323 -88 311 -113T280 -161T235 -197Q214 -206 196 -216T178 -227Q178 -227 171 -227T145 -230ZM316 407Q282 428 286
453T330 499Q351 507 365 507T396 493Q416 474 410 454T374 413Q355 400 346 400T316 407Z" />
<glyph unicode="&#xc0;" horiz-adv-x="502" d="M313 -33Q295 -23 294 -11T307 31T354 124Q378 169 386 194T396 231T397 245Q395 254 399 259T412 269Q417 274 435 287T463 318Q472 339 483 361T514 416T565 504Q585 539 612 583T667 663Q678 677 690 685T711
693Q733 693 755 682T794 653T817 621Q822 613 821 587T817 524T810 445Q807 404 801 348T790 231T781 114T781 15Q782 6 781 -2T780 -15Q774 -21 754 -21T715 -14T694 1Q691 4 690 6T690 25T693 90L698 243L685 242Q676 242 653 240T602 235T551 228T519 221Q510
221 498 209T474 178Q470 164 460 149T449 128Q442 123 438 116T433 109Q433 103 425 80T403 28T375 -22L348 -60L313 -33ZM552 311Q552 311 563 313T589 317T617 320Q640 326 655 329T681 332T697 330Q701 325 704 324T708 323Q709 325 712 344T719 391T727 449T734
506T738 548Q739 567 737 582T735 598Q729 598 713 577T675 520T632 443Q622 424 614 413T600 402Q598 400 590 387T572 357T556 327T552 311ZM543 704Q533 699 530 707T524 729T514 753Q504 772 491 793T471 833T476 865Q498 888 509 889T531 879Q538 875 547
857T566 815T582 773T589 748Q590 744 575 727T543 704Z" />
<glyph unicode="&#xc1;" horiz-adv-x="502" d="M313 -33Q295 -23 294 -11T307 31T354 124Q378 169 386 194T396 231T397 245Q395 254 399 259T412 269Q417 274 435 287T463 318Q472 339 483 361T514 416T565 504Q585 539 612 583T667 663Q678 677 690 685T711
693Q733 693 755 682T794 653T817 621Q822 613 821 587T817 524T810 445Q807 404 801 348T790 231T781 114T781 15Q782 6 781 -2T780 -15Q774 -21 754 -21T715 -14T694 1Q691 4 690 6T690 25T693 90L698 243L685 242Q676 242 653 240T602 235T551 228T519 221Q510
221 498 209T474 178Q470 164 460 149T449 128Q442 123 438 116T433 109Q433 103 425 80T403 28T375 -22L348 -60L313 -33ZM552 311Q552 311 563 313T589 317T617 320Q640 326 655 329T681 332T697 330Q701 325 704 324T708 323Q709 325 712 344T719 391T727 449T734
506T738 548Q739 567 737 582T735 598Q729 598 713 577T675 520T632 443Q622 424 614 413T600 402Q598 400 590 387T572 357T556 327T552 311ZM480 714Q473 721 470 731T467 767Q468 772 480 787T510 821T546 855T575 874Q588 879 602 864T618 826Q620 818 609
806T581 780T548 753T524 728Q514 712 503 710T480 714Z" />
<glyph unicode="&#xc2;" horiz-adv-x="502" d="M313 -33Q295 -23 294 -11T307 31T354 124Q378 169 386 194T396 231T397 245Q395 254 399 259T412 269Q417 274 435 287T463 318Q472 339 483 361T514 416T565 504Q585 539 612 583T667 663Q678 677 690 685T711
693Q733 693 755 682T794 653T817 621Q822 613 821 587T817 524T810 445Q807 404 801 348T790 231T781 114T781 15Q782 6 781 -2T780 -15Q774 -21 754 -21T715 -14T694 1Q691 4 690 6T690 25T693 90L698 243L685 242Q676 242 653 240T602 235T551 228T519 221Q510
221 498 209T474 178Q470 164 460 149T449 128Q442 123 438 116T433 109Q433 103 425 80T403 28T375 -22L348 -60L313 -33ZM552 311Q552 311 563 313T589 317T617 320Q640 326 655 329T681 332T697 330Q701 325 704 324T708 323Q709 325 712 344T719 391T727 449T734
506T738 548Q739 567 737 582T735 598Q729 598 713 577T675 520T632 443Q622 424 614 413T600 402Q598 400 590 387T572 357T556 327T552 311ZM683 727Q666 710 652 715T634 737T638 768Q641 772 653 783T683 810T716 837T743 856Q756 867 769 865T789 853Q801
843 818 827T851 794T874 767Q880 755 877 742T863 721T840 714T814 733Q807 739 792 754T762 783Q750 776 734 765T704 744T683 727Z" />
<glyph unicode="&#xc3;" horiz-adv-x="502" d="M313 -33Q295 -23 294 -11T307 31T354 124Q378 169 386 194T396 231T397 245Q395 254 399 259T412 269Q417 274 435 287T463 318Q472 339 483 361T514 416T565 504Q585 539 612 583T667 663Q678 677 690 685T711
693Q733 693 755 682T794 653T817 621Q822 613 821 587T817 524T810 445Q807 404 801 348T790 231T781 114T781 15Q782 6 781 -2T780 -15Q774 -21 754 -21T715 -14T694 1Q691 4 690 6T690 25T693 90L698 243L685 242Q676 242 653 240T602 235T551 228T519 221Q510
221 498 209T474 178Q470 164 460 149T449 128Q442 123 438 116T433 109Q433 103 425 80T403 28T375 -22L348 -60L313 -33ZM552 311Q552 311 563 313T589 317T617 320Q640 326 655 329T681 332T697 330Q701 325 704 324T708 323Q709 325 712 344T719 391T727 449T734
506T738 548Q739 567 737 582T735 598Q729 598 713 577T675 520T632 443Q622 424 614 413T600 402Q598 400 590 387T572 357T556 327T552 311ZM571 726Q557 726 541 734T507 757Q498 762 485 775T459 789Q449 789 443 781T431 765T414 755Q411 748 408 742T396
740Q386 742 379 750T369 777Q377 800 394 820T436 854Q468 862 485 854T519 829Q543 810 556 807T588 812Q603 816 617 825T653 842Q660 845 667 838T679 821T683 805Q682 793 673 783T655 767Q625 750 608 741T583 729T571 726Z" />
<glyph unicode="&#xc4;" horiz-adv-x="502" d="M313 -33Q295 -23 294 -11T307 31T354 124Q378 169 386 194T396 231T397 245Q395 254 399 259T412 269Q417 274 435 287T463 318Q472 339 483 361T514 416T565 504Q585 539 612 583T667 663Q678 677 690 685T711
693Q733 693 755 682T794 653T817 621Q822 613 821 587T817 524T810 445Q807 404 801 348T790 231T781 114T781 15Q782 6 781 -2T780 -15Q774 -21 754 -21T715 -14T694 1Q691 4 690 6T690 25T693 90L698 243L685 242Q676 242 653 240T602 235T551 228T519 221Q510
221 498 209T474 178Q470 164 460 149T449 128Q442 123 438 116T433 109Q433 103 425 80T403 28T375 -22L348 -60L313 -33ZM552 311Q552 311 563 313T589 317T617 320Q640 326 655 329T681 332T697 330Q701 325 704 324T708 323Q709 325 712 344T719 391T727 449T734
506T738 548Q739 567 737 582T735 598Q729 598 713 577T675 520T632 443Q622 424 614 413T600 402Q598 400 590 387T572 357T556 327T552 311ZM574 746Q567 753 562 768T558 788Q560 793 566 809T576 829Q581 836 592 847T607 860Q618 872 634 866T658 844Q677
821 670 800T643 758Q623 727 606 729T574 746ZM430 736Q416 746 409 763T404 787Q406 801 417 821T435 847Q438 849 444 854T456 862Q469 871 480 866T500 849T512 826Q519 813 514 797T492 763Q476 742 462 734T430 736Z" />
<glyph unicode="&#xc5;" horiz-adv-x="502" d="M313 -33Q295 -23 294 -11T307 31T354 124Q378 169 386 194T396 231T397 245Q395 254 399 259T412 269Q417 274 435 287T463 318Q472 339 483 361T514 416T565 504Q585 539 612 583T667 663Q678 677 690 685T711
693Q733 693 755 682T794 653T817 621Q822 613 821 587T817 524T810 445Q807 404 801 348T790 231T781 114T781 15Q782 6 781 -2T780 -15Q774 -21 754 -21T715 -14T694 1Q691 4 690 6T690 25T693 90L698 243L685 242Q676 242 653 240T602 235T551 228T519 221Q510
221 498 209T474 178Q470 164 460 149T449 128Q442 123 438 116T433 109Q433 103 425 80T403 28T375 -22L348 -60L313 -33ZM552 311Q552 311 563 313T589 317T617 320Q640 326 655 329T681 332T697 330Q701 325 704 324T708 323Q709 325 712 344T719 391T727 449T734
506T738 548Q739 567 737 582T735 598Q729 598 713 577T675 520T632 443Q622 424 614 413T600 402Q598 400 590 387T572 357T556 327T552 311ZM529 685Q495 685 479 704T455 759Q454 791 465 817T495 858T536 874Q580 873 600 854T620 806Q618 770 606 743T574
700T529 685ZM531 743Q549 743 556 755T564 780Q564 795 559 805T539 814Q508 812 509 774Q509 764 516 754T531 743Z" />
<glyph unicode="&#xc6;" horiz-adv-x="784" d="M560 -50Q520 -50 498 -44T449 -18Q429 -3 419 22T406 75T409 127Q412 150 417 170T426 203H414Q393 202 357 204T271 209L254 188Q247 179 236 163T214 125Q204 106 187 79T151 28Q130 -3 120 -10T104 -18Q92 -18
86 -15T71 -4Q54 6 55 25T81 73Q87 80 91 87T96 94Q100 102 110 120T134 159T158 194T174 212Q197 233 178 252Q171 255 172 269T184 295T217 306Q225 309 231 311T238 316Q239 321 245 331T259 355T277 381T295 403Q310 431 315 440T327 458Q333 463 346 480T370
514Q386 528 398 543T420 570Q426 581 435 592T458 618Q480 639 498 642T530 645Q545 645 571 640T625 624Q651 635 688 643T747 652Q753 656 774 658T822 660T873 658Q895 658 908 652T934 639Q956 622 956 611T951 594T944 589Q940 588 930 586T898 583T835 582Q821
582 803 579T768 573T744 570Q734 566 716 565T693 564Q691 564 684 553T670 527T656 499T650 483Q650 473 642 459T622 428Q612 415 610 402T617 385Q633 388 651 390T687 395T720 397Q746 401 766 401T793 397Q806 395 809 384T809 362T792 346Q787 342 767 335T718
321T660 307T608 296T574 291Q566 298 560 289T542 233Q531 208 525 194T516 163T506 116Q502 101 508 78T547 39Q567 35 590 35T657 47Q675 58 692 67T716 81Q721 81 731 85T746 90Q751 95 756 98T768 102Q770 102 780 88T799 59T807 41Q807 31 771 14T685 -24Q660
-35 644 -41T610 -48T560 -50ZM332 287Q332 287 345 289T387 291Q406 293 424 293T456 292Q458 298 462 303T469 316Q472 322 473 331T475 343Q475 343 479 350T487 368Q491 378 494 385T500 397Q505 402 510 413T521 434Q541 472 552 490T571 525Q558 532 543
533T506 532Q502 535 492 526T469 504T445 476T429 454Q425 449 410 426T377 379Q351 341 340 323T328 297T332 287Z" />
<glyph unicode="&#xc7;" horiz-adv-x="482" d="M473 -66Q458 -60 438 -50T400 -22T372 19Q362 48 359 76T356 141Q356 193 363 231T387 310Q389 313 394 327T407 359T419 385Q427 402 443 430T479 486Q508 529 528 556T566 603T607 640T664 681Q686 697 720 701T788
691T837 636Q848 615 847 584T835 517T807 450T769 400Q756 388 735 396T699 417Q690 434 690 437T693 441Q699 448 709 465T729 501T743 533Q751 575 754 588T748 611Q744 615 737 614T712 604Q689 594 658 564T595 491Q555 438 528 397T487 313Q485 309 481 298T476
287Q477 283 473 268T464 241Q453 195 451 153T456 79T479 32Q492 23 512 26T558 40T614 64Q638 74 658 86T688 107Q696 113 708 119T730 126Q744 131 751 118T758 85Q758 71 738 51T694 17Q686 9 673 3T645 -9Q624 -25 593 -40T531 -63T473 -66ZM237 -9Q222 -12
197 -8T151 3T123 11Q111 15 105 26T100 50T111 68T143 69Q159 65 177 59T211 52T233 66Q240 77 232 88T213 112Q206 121 200 127T182 144Q174 155 173 169T188 202T253 244L309 214Q284 202 269 191T253 167Q267 147 284 129T306 90Q312 66 303 45T275 10T237
-9Z" />
<glyph unicode="&#xc8;" horiz-adv-x="548" d="M491 -39Q460 -37 429 -17T372 22Q355 39 346 58T331 110Q327 129 331 160T344 222T361 272Q373 300 391 332T428 394T458 442Q465 449 465 449T464 450Q464 455 474 475T493 512Q508 528 510 538T507 554Q505 558
515 571T545 600T587 630Q611 649 633 650T660 641Q660 638 671 639T698 644T726 650Q731 656 749 659T793 666Q806 665 822 665T850 667T863 668Q870 670 883 660T905 631Q912 613 893 600T833 582Q803 578 787 576T752 570T698 558Q673 553 656 550T627 538T599
506Q592 501 581 480T559 438Q531 399 518 381T508 357Q508 357 522 354T540 351Q550 356 564 358T588 362Q650 378 679 385T721 396T744 400Q758 411 772 399T793 369Q800 349 793 338T763 320T696 304T588 276Q533 260 499 257T467 274Q460 278 452 267T436 235T424
192T417 149T420 118Q428 95 445 79T497 52Q517 51 536 49T579 57Q638 67 661 78T689 93Q697 97 699 101T707 105Q704 100 709 105T725 119Q746 137 767 141T802 142T817 133Q823 123 811 102T775 56T717 13Q664 -15 602 -26T491 -39ZM565 704Q555 699 552 707T546
729T536 753Q526 772 513 793T493 833T498 865Q520 888 531 889T553 879Q560 875 569 857T588 815T604 773T611 748Q612 744 597 727T565 704Z" />
<glyph unicode="&#xc9;" horiz-adv-x="548" d="M491 -39Q460 -37 429 -17T372 22Q355 39 346 58T331 110Q327 129 331 160T344 222T361 272Q373 300 391 332T428 394T458 442Q465 449 465 449T464 450Q464 455 474 475T493 512Q508 528 510 538T507 554Q505 558
515 571T545 600T587 630Q611 649 633 650T660 641Q660 638 671 639T698 644T726 650Q731 656 749 659T793 666Q806 665 822 665T850 667T863 668Q870 670 883 660T905 631Q912 613 893 600T833 582Q803 578 787 576T752 570T698 558Q673 553 656 550T627 538T599
506Q592 501 581 480T559 438Q531 399 518 381T508 357Q508 357 522 354T540 351Q550 356 564 358T588 362Q650 378 679 385T721 396T744 400Q758 411 772 399T793 369Q800 349 793 338T763 320T696 304T588 276Q533 260 499 257T467 274Q460 278 452 267T436 235T424
192T417 149T420 118Q428 95 445 79T497 52Q517 51 536 49T579 57Q638 67 661 78T689 93Q697 97 699 101T707 105Q704 100 709 105T725 119Q746 137 767 141T802 142T817 133Q823 123 811 102T775 56T717 13Q664 -15 602 -26T491 -39ZM502 714Q495 721 492 731T489
767Q490 772 502 787T532 821T568 855T597 874Q610 879 624 864T640 826Q642 818 631 806T603 780T570 753T546 728Q536 712 525 710T502 714Z" />
<glyph unicode="&#xca;" horiz-adv-x="548" d="M491 -39Q460 -37 429 -17T372 22Q355 39 346 58T331 110Q327 129 331 160T344 222T361 272Q373 300 391 332T428 394T458 442Q465 449 465 449T464 450Q464 455 474 475T493 512Q508 528 510 538T507 554Q505 558
515 571T545 600T587 630Q611 649 633 650T660 641Q660 638 671 639T698 644T726 650Q731 656 749 659T793 666Q806 665 822 665T850 667T863 668Q870 670 883 660T905 631Q912 613 893 600T833 582Q803 578 787 576T752 570T698 558Q673 553 656 550T627 538T599
506Q592 501 581 480T559 438Q531 399 518 381T508 357Q508 357 522 354T540 351Q550 356 564 358T588 362Q650 378 679 385T721 396T744 400Q758 411 772 399T793 369Q800 349 793 338T763 320T696 304T588 276Q533 260 499 257T467 274Q460 278 452 267T436 235T424
192T417 149T420 118Q428 95 445 79T497 52Q517 51 536 49T579 57Q638 67 661 78T689 93Q697 97 699 101T707 105Q704 100 709 105T725 119Q746 137 767 141T802 142T817 133Q823 123 811 102T775 56T717 13Q664 -15 602 -26T491 -39ZM489 727Q472 710 458 715T440
737T444 768Q447 772 459 783T489 810T522 837T549 856Q562 867 575 865T595 853Q607 843 624 827T657 794T680 767Q686 755 683 742T669 721T646 714T620 733Q613 739 598 754T568 783Q556 776 540 765T510 744T489 727Z" />
<glyph unicode="&#xcb;" horiz-adv-x="548" d="M491 -39Q460 -37 429 -17T372 22Q355 39 346 58T331 110Q327 129 331 160T344 222T361 272Q373 300 391 332T428 394T458 442Q465 449 465 449T464 450Q464 455 474 475T493 512Q508 528 510 538T507 554Q505 558
515 571T545 600T587 630Q611 649 633 650T660 641Q660 638 671 639T698 644T726 650Q731 656 749 659T793 666Q806 665 822 665T850 667T863 668Q870 670 883 660T905 631Q912 613 893 600T833 582Q803 578 787 576T752 570T698 558Q673 553 656 550T627 538T599
506Q592 501 581 480T559 438Q531 399 518 381T508 357Q508 357 522 354T540 351Q550 356 564 358T588 362Q650 378 679 385T721 396T744 400Q758 411 772 399T793 369Q800 349 793 338T763 320T696 304T588 276Q533 260 499 257T467 274Q460 278 452 267T436 235T424
192T417 149T420 118Q428 95 445 79T497 52Q517 51 536 49T579 57Q638 67 661 78T689 93Q697 97 699 101T707 105Q704 100 709 105T725 119Q746 137 767 141T802 142T817 133Q823 123 811 102T775 56T717 13Q664 -15 602 -26T491 -39ZM596 746Q589 753 584 768T580
788Q582 793 588 809T598 829Q603 836 614 847T629 860Q640 872 656 866T680 844Q699 821 692 800T665 758Q645 727 628 729T596 746ZM452 736Q438 746 431 763T426 787Q428 801 439 821T457 847Q460 849 466 854T478 862Q491 871 502 866T522 849T534 826Q541
813 536 797T514 763Q498 742 484 734T452 736Z" />
<glyph unicode="&#xcc;" horiz-adv-x="400" d="M433 -41Q426 -30 409 -27T357 -26Q343 -28 328 -24T304 -12T297 4Q298 16 325 30T395 45L437 46L447 66Q451 77 453 90T463 126Q467 140 475 165T492 218T508 270T517 302Q521 311 528 332T541 376T550 409Q576
488 584 519T588 552Q584 552 569 551T536 549T504 545T487 541Q482 534 470 543T455 563Q454 572 455 580T461 591Q468 597 490 604T539 618T590 627Q607 629 624 634T651 648Q660 651 668 653T686 654Q694 649 713 649T755 650Q811 655 833 647T863 624Q868 605
861 593T837 581Q828 579 812 578T770 575Q704 569 699 561Q695 557 693 553T686 544Q687 540 682 521T668 479Q664 466 656 442T640 393T624 347T614 319Q610 310 608 300T604 284Q590 235 581 202T564 145T551 98T537 47Q537 47 554 48T597 52Q644 57 661 58T681
56T687 43Q707 16 685 -2T606 -19Q554 -21 530 -22T498 -27T491 -37Q492 -53 472 -56T433 -41ZM720 704Q710 699 707 707T701 729T691 753Q681 772 668 793T648 833T653 865Q675 888 686 889T708 879Q715 875 724 857T743 815T759 773T766 748Q767 744 752 727T720
704Z" />
<glyph unicode="&#xcd;" horiz-adv-x="400" d="M433 -41Q426 -30 409 -27T357 -26Q343 -28 328 -24T304 -12T297 4Q298 16 325 30T395 45L437 46L447 66Q451 77 453 90T463 126Q467 140 475 165T492 218T508 270T517 302Q521 311 528 332T541 376T550 409Q576
488 584 519T588 552Q584 552 569 551T536 549T504 545T487 541Q482 534 470 543T455 563Q454 572 455 580T461 591Q468 597 490 604T539 618T590 627Q607 629 624 634T651 648Q660 651 668 653T686 654Q694 649 713 649T755 650Q811 655 833 647T863 624Q868 605
861 593T837 581Q828 579 812 578T770 575Q704 569 699 561Q695 557 693 553T686 544Q687 540 682 521T668 479Q664 466 656 442T640 393T624 347T614 319Q610 310 608 300T604 284Q590 235 581 202T564 145T551 98T537 47Q537 47 554 48T597 52Q644 57 661 58T681
56T687 43Q707 16 685 -2T606 -19Q554 -21 530 -22T498 -27T491 -37Q492 -53 472 -56T433 -41ZM657 714Q650 721 647 731T644 767Q645 772 657 787T687 821T723 855T752 874Q765 879 779 864T795 826Q797 818 786 806T758 780T725 753T701 728Q691 712 680 710T657
714Z" />
<glyph unicode="&#xce;" horiz-adv-x="400" d="M433 -41Q426 -30 409 -27T357 -26Q343 -28 328 -24T304 -12T297 4Q298 16 325 30T395 45L437 46L447 66Q451 77 453 90T463 126Q467 140 475 165T492 218T508 270T517 302Q521 311 528 332T541 376T550 409Q576
488 584 519T588 552Q584 552 569 551T536 549T504 545T487 541Q482 534 470 543T455 563Q454 572 455 580T461 591Q468 597 490 604T539 618T590 627Q607 629 624 634T651 648Q660 651 668 653T686 654Q694 649 713 649T755 650Q811 655 833 647T863 624Q868 605
861 593T837 581Q828 579 812 578T770 575Q704 569 699 561Q695 557 693 553T686 544Q687 540 682 521T668 479Q664 466 656 442T640 393T624 347T614 319Q610 310 608 300T604 284Q590 235 581 202T564 145T551 98T537 47Q537 47 554 48T597 52Q644 57 661 58T681
56T687 43Q707 16 685 -2T606 -19Q554 -21 530 -22T498 -27T491 -37Q492 -53 472 -56T433 -41ZM644 727Q627 710 613 715T595 737T599 768Q602 772 614 783T644 810T677 837T704 856Q717 867 730 865T750 853Q762 843 779 827T812 794T835 767Q841 755 838 742T824
721T801 714T775 733Q768 739 753 754T723 783Q711 776 695 765T665 744T644 727Z" />
<glyph unicode="&#xcf;" horiz-adv-x="409" d="M181 -41Q174 -30 157 -27T105 -26Q91 -28 76 -24T52 -12T45 4Q46 16 73 30T143 45L185 46L195 66Q199 77 201 90T211 126Q215 140 223 165T240 218T256 270T265 302Q269 311 276 332T289 376T298 409Q324 488 332
519T336 552Q332 552 317 551T284 549T252 545T235 541Q230 534 218 543T203 563Q202 572 203 580T209 591Q216 597 238 604T287 618T338 627Q355 629 372 634T399 648Q408 651 416 653T434 654Q442 649 461 649T503 650Q559 655 581 647T611 624Q616 605 609 593T585
581Q576 579 560 578T518 575Q452 569 447 561Q443 557 441 553T434 544Q435 540 430 521T416 479Q412 466 404 442T388 393T372 347T362 319Q358 310 356 300T352 284Q338 235 329 202T312 145T299 98T285 47Q285 47 302 48T345 52Q392 57 409 58T429 56T435 43Q455
16 433 -2T354 -19Q302 -21 278 -22T246 -27T239 -37Q240 -53 220 -56T181 -41ZM751 746Q744 753 739 768T735 788Q737 793 743 809T753 829Q758 836 769 847T784 860Q795 872 811 866T835 844Q854 821 847 800T820 758Q800 727 783 729T751 746ZM607 736Q593 746
586 763T581 787Q583 801 594 821T612 847Q615 849 621 854T633 862Q646 871 657 866T677 849T689 826Q696 813 691 797T669 763Q653 742 639 734T607 736Z" />
<glyph unicode="&#xd0;" horiz-adv-x="578" d="M224 -104Q202 -108 171 -106T95 -91Q85 -86 74 -74T55 -45T47 -15Q47 11 58 20T81 30Q100 29 113 18T133 -2Q155 -9 172 -14T206 -21Q228 -19 248 -18T284 -14T308 -6Q361 30 388 52T416 75Q418 79 423 81T437 87Q443
93 456 107T482 134T498 149Q500 158 502 163T504 175Q512 183 526 209T554 267T574 325Q587 390 581 435T554 513T500 573Q486 584 468 593T432 610T401 621T384 624Q381 623 372 599T348 537T318 453T285 360H289Q317 357 328 352T351 339Q365 324 358 309T326
295Q319 294 304 293T274 291Q272 291 269 291T262 291Q255 269 248 249T241 224Q230 207 218 172T198 72Q189 38 185 15T177 -7L176 -14Q176 -20 162 -23T132 -24T110 -16Q107 -5 100 12T99 54Q103 77 112 109T133 176T154 237T168 278Q169 280 169 282T171 286H165Q164
286 158 287T142 291Q127 291 118 297T104 313Q97 328 110 335T158 346Q167 348 176 350T192 353Q193 355 193 357T194 360Q202 384 209 408T224 451T236 478Q241 491 248 521T272 589L279 621L268 626Q261 623 254 623T241 626Q236 625 229 628T215 638T203 650Q198
659 197 666T196 674Q197 682 217 690T270 704T343 712Q383 711 424 700T492 678Q527 666 563 637T627 572T665 497Q672 474 675 448T678 402T673 376Q671 372 671 367T674 359Q673 356 667 337T656 303Q653 276 642 244T618 183T595 137Q591 137 588 136T588 133Q588
126 582 120T570 106Q566 103 561 96T551 84Q550 77 545 73T536 68Q536 68 535 68T533 64Q525 52 507 33T464 -6T416 -43T372 -68Q362 -75 351 -79T330 -89Q325 -93 306 -95T264 -99T224 -104Z" />
<glyph unicode="&#xd1;" horiz-adv-x="566" d="M362 -85Q342 -74 335 -59T329 -26T336 11Q344 43 353 64T372 109T389 170Q405 207 417 240T437 294T444 315Q445 319 452 336T471 377T494 427Q511 475 526 508T556 569T590 623Q602 644 624 648T666 644T692 615Q697
605 700 592T707 554T712 480Q714 423 714 376T718 288T731 215Q734 197 737 172T743 121T751 80T759 63Q764 63 770 71T788 108T816 194T857 350Q862 367 870 405T883 482Q890 507 897 537T909 590T915 616Q915 623 915 628T915 638Q920 638 924 651T928 675Q928
692 932 702T942 718Q953 738 970 738T1003 729T1021 703Q1023 692 1016 654T993 550Q993 539 987 514T975 461T965 413Q961 387 956 365T946 343Q920 230 892 151T841 21Q817 -34 780 -49T710 -24Q691 2 678 27T657 86T643 172Q637 214 633 254T626 337T625 428Q626
485 621 495T605 484T582 427Q575 407 566 382T546 331T529 288T520 265Q514 253 506 234T493 192Q457 98 440 31T414 -59Q404 -87 396 -93T362 -85ZM802 726Q788 726 772 734T738 757Q729 762 716 775T690 789Q680 789 674 781T662 765T645 755Q642 748 639 742T627
740Q617 742 610 750T600 777Q608 800 625 820T667 854Q699 862 716 854T750 829Q774 810 787 807T819 812Q834 816 848 825T884 842Q891 845 898 838T910 821T914 805Q913 793 904 783T886 767Q856 750 839 741T814 729T802 726Z" />
<glyph unicode="&#xd2;" horiz-adv-x="496" d="M439 -35Q402 -8 381 15T357 61Q355 79 357 110T364 171T371 216Q376 221 376 229T375 238Q374 243 382 264T397 320Q417 380 435 420T472 490T508 543Q549 585 585 610T653 649Q673 661 690 668T718 670Q774 658
813 621T865 514Q872 470 873 435T868 365T843 289T791 193Q750 112 702 58T605 -25T513 -55T439 -35ZM519 31Q542 34 556 40T587 63T632 113Q658 143 675 164T705 207T729 259T755 338Q763 368 766 382T771 407T772 434T771 488Q770 505 764 526T750 557Q740 568
720 576T678 574Q666 569 648 554T611 517T575 475T548 437T538 413Q538 413 538 408T533 398Q520 384 506 352T480 279T460 197T450 123Q450 107 450 96T452 77T461 58Q467 48 485 38T519 31ZM538 704Q528 699 525 707T519 729T509 753Q499 772 486 793T466 833T471
865Q493 888 504 889T526 879Q533 875 542 857T561 815T577 773T584 748Q585 744 570 727T538 704Z" />
<glyph unicode="&#xd3;" horiz-adv-x="496" d="M439 -35Q402 -8 381 15T357 61Q355 79 357 110T364 171T371 216Q376 221 376 229T375 238Q374 243 382 264T397 320Q417 380 435 420T472 490T508 543Q549 585 585 610T653 649Q673 661 690 668T718 670Q774 658
813 621T865 514Q872 470 873 435T868 365T843 289T791 193Q750 112 702 58T605 -25T513 -55T439 -35ZM519 31Q542 34 556 40T587 63T632 113Q658 143 675 164T705 207T729 259T755 338Q763 368 766 382T771 407T772 434T771 488Q770 505 764 526T750 557Q740 568
720 576T678 574Q666 569 648 554T611 517T575 475T548 437T538 413Q538 413 538 408T533 398Q520 384 506 352T480 279T460 197T450 123Q450 107 450 96T452 77T461 58Q467 48 485 38T519 31ZM475 714Q468 721 465 731T462 767Q463 772 475 787T505 821T541 855T570
874Q583 879 597 864T613 826Q615 818 604 806T576 780T543 753T519 728Q509 712 498 710T475 714Z" />
<glyph unicode="&#xd4;" horiz-adv-x="496" d="M439 -35Q402 -8 381 15T357 61Q355 79 357 110T364 171T371 216Q376 221 376 229T375 238Q374 243 382 264T397 320Q417 380 435 420T472 490T508 543Q549 585 585 610T653 649Q673 661 690 668T718 670Q774 658
813 621T865 514Q872 470 873 435T868 365T843 289T791 193Q750 112 702 58T605 -25T513 -55T439 -35ZM519 31Q542 34 556 40T587 63T632 113Q658 143 675 164T705 207T729 259T755 338Q763 368 766 382T771 407T772 434T771 488Q770 505 764 526T750 557Q740 568
720 576T678 574Q666 569 648 554T611 517T575 475T548 437T538 413Q538 413 538 408T533 398Q520 384 506 352T480 279T460 197T450 123Q450 107 450 96T452 77T461 58Q467 48 485 38T519 31ZM462 727Q445 710 431 715T413 737T417 768Q420 772 432 783T462 810T495
837T522 856Q535 867 548 865T568 853Q580 843 597 827T630 794T653 767Q659 755 656 742T642 721T619 714T593 733Q586 739 571 754T541 783Q529 776 513 765T483 744T462 727Z" />
<glyph unicode="&#xd5;" horiz-adv-x="496" d="M439 -35Q402 -8 381 15T357 61Q355 79 357 110T364 171T371 216Q376 221 376 229T375 238Q374 243 382 264T397 320Q417 380 435 420T472 490T508 543Q549 585 585 610T653 649Q673 661 690 668T718 670Q774 658
813 621T865 514Q872 470 873 435T868 365T843 289T791 193Q750 112 702 58T605 -25T513 -55T439 -35ZM519 31Q542 34 556 40T587 63T632 113Q658 143 675 164T705 207T729 259T755 338Q763 368 766 382T771 407T772 434T771 488Q770 505 764 526T750 557Q740 568
720 576T678 574Q666 569 648 554T611 517T575 475T548 437T538 413Q538 413 538 408T533 398Q520 384 506 352T480 279T460 197T450 123Q450 107 450 96T452 77T461 58Q467 48 485 38T519 31ZM822 726Q808 726 792 734T758 757Q749 762 736 775T710 789Q700 789
694 781T682 765T665 755Q662 748 659 742T647 740Q637 742 630 750T620 777Q628 800 645 820T687 854Q719 862 736 854T770 829Q794 810 807 807T839 812Q854 816 868 825T904 842Q911 845 918 838T930 821T934 805Q933 793 924 783T906 767Q876 750 859 741T834
729T822 726Z" />
<glyph unicode="&#xd6;" horiz-adv-x="496" d="M439 -35Q402 -8 381 15T357 61Q355 79 357 110T364 171T371 216Q376 221 376 229T375 238Q374 243 382 264T397 320Q417 380 435 420T472 490T508 543Q549 585 585 610T653 649Q673 661 690 668T718 670Q774 658
813 621T865 514Q872 470 873 435T868 365T843 289T791 193Q750 112 702 58T605 -25T513 -55T439 -35ZM519 31Q542 34 556 40T587 63T632 113Q658 143 675 164T705 207T729 259T755 338Q763 368 766 382T771 407T772 434T771 488Q770 505 764 526T750 557Q740 568
720 576T678 574Q666 569 648 554T611 517T575 475T548 437T538 413Q538 413 538 408T533 398Q520 384 506 352T480 279T460 197T450 123Q450 107 450 96T452 77T461 58Q467 48 485 38T519 31ZM825 746Q818 753 813 768T809 788Q811 793 817 809T827 829Q832 836
843 847T858 860Q869 872 885 866T909 844Q928 821 921 800T894 758Q874 727 857 729T825 746ZM681 736Q667 746 660 763T655 787Q657 801 668 821T686 847Q689 849 695 854T707 862Q720 871 731 866T751 849T763 826Q770 813 765 797T743 763Q727 742 713 734T681
736Z" />
<glyph unicode="&#xd7;" horiz-adv-x="446" d="M440 77Q438 59 423 62T378 88Q367 95 348 111T305 149T258 192T215 233T183 263Q165 281 155 299T143 333Q143 354 160 360T191 348Q196 343 216 326T250 296Q253 293 267 280T302 247T343 207T381 170T407 145Q412
141 417 135T428 117Q439 107 440 96T440 77ZM160 61Q142 63 145 78T171 122Q179 134 195 153T232 196T275 243T316 286T346 317Q364 335 382 346T416 357Q437 357 443 340T431 310Q426 304 409 284T379 250Q376 247 363 233T330 198T290 157T253 119T228 93Q224
89 218 83T200 72Q190 61 179 60T160 61Z" />
<glyph unicode="&#xd8;" horiz-adv-x="496" d="M122 -101Q102 -100 90 -86T85 -40T130 46Q138 57 144 66T153 83Q157 89 172 113T209 170T255 240T301 309T337 363T354 387Q358 386 363 391T370 404Q373 412 379 420T390 430Q392 435 396 440T402 450Q403 454
406 457T411 464Q421 474 441 498T484 553T529 613T565 664T582 690Q587 705 603 699Q606 701 620 701T639 700Q639 700 641 696T649 680Q655 670 654 657T648 632Q644 619 636 610T610 586T563 539Q548 522 535 510T522 493Q520 489 519 488T511 475Q505 469 493
455T469 424T448 396T439 382Q437 379 436 375T428 369Q425 371 423 366T420 360Q420 356 412 344T389 314Q378 298 357 267T310 196T255 114T203 35T163 -29T144 -64Q137 -86 134 -92T122 -101ZM177 -35Q140 -8 119 15T95 61Q93 79 95 110T102 171T109 216Q114
221 114 229T113 238Q112 243 120 264T135 320Q155 380 173 420T210 490T246 543Q287 585 323 610T391 649Q411 661 428 668T456 670Q512 658 551 621T603 514Q610 470 611 435T606 365T581 289T529 193Q488 112 440 58T343 -25T251 -55T177 -35ZM257 31Q280 34
294 40T325 63T370 113Q396 143 413 164T443 207T467 259T493 338Q501 368 504 382T509 407T510 434T509 488Q508 505 502 526T488 557Q478 568 458 576T416 574Q404 569 386 554T349 517T313 475T286 437T276 413Q276 413 276 408T271 398Q258 384 244 352T218
279T198 197T188 123Q188 107 188 96T190 77T199 58Q205 48 223 38T257 31Z" />
<glyph unicode="&#xd9;" horiz-adv-x="482" d="M229 -60Q177 -46 150 -7T120 101T138 275Q145 310 158 355T188 447T225 539T264 618Q287 659 304 673T337 685Q361 681 373 666T386 633T368 604Q357 591 340 557T304 490Q284 432 269 388T244 304T226 222Q217
180 212 158T206 124T204 104T203 81Q211 68 216 58T229 46Q246 38 263 38T302 50Q307 60 315 64T323 68Q325 63 327 65T331 72Q330 76 333 79T340 87Q348 90 360 104T385 135T405 168T414 187Q414 192 418 196T427 206Q432 211 447 238T481 303T515 371Q518 382
526 406T543 463T562 527T578 585T588 623Q590 636 594 644T599 657Q610 666 624 662T650 651T669 640Q675 632 674 620T668 584T652 513Q631 431 602 362T538 216Q538 216 538 216T538 210Q526 203 519 189Q514 180 511 174T502 164Q499 155 496 148T493 141Q492
136 486 132T474 124Q469 122 468 116T464 106Q442 73 410 40T345 -19T284 -54Q266 -61 255 -62T229 -60ZM779 704Q769 699 766 707T760 729T750 753Q740 772 727 793T707 833T712 865Q734 888 745 889T767 879Q774 875 783 857T802 815T818 773T825 748Q826 744
811 727T779 704Z" />
<glyph unicode="&#xda;" horiz-adv-x="482" d="M229 -60Q177 -46 150 -7T120 101T138 275Q145 310 158 355T188 447T225 539T264 618Q287 659 304 673T337 685Q361 681 373 666T386 633T368 604Q357 591 340 557T304 490Q284 432 269 388T244 304T226 222Q217
180 212 158T206 124T204 104T203 81Q211 68 216 58T229 46Q246 38 263 38T302 50Q307 60 315 64T323 68Q325 63 327 65T331 72Q330 76 333 79T340 87Q348 90 360 104T385 135T405 168T414 187Q414 192 418 196T427 206Q432 211 447 238T481 303T515 371Q518 382
526 406T543 463T562 527T578 585T588 623Q590 636 594 644T599 657Q610 666 624 662T650 651T669 640Q675 632 674 620T668 584T652 513Q631 431 602 362T538 216Q538 216 538 216T538 210Q526 203 519 189Q514 180 511 174T502 164Q499 155 496 148T493 141Q492
136 486 132T474 124Q469 122 468 116T464 106Q442 73 410 40T345 -19T284 -54Q266 -61 255 -62T229 -60ZM716 714Q709 721 706 731T703 767Q704 772 716 787T746 821T782 855T811 874Q824 879 838 864T854 826Q856 818 845 806T817 780T784 753T760 728Q750 712
739 710T716 714Z" />
<glyph unicode="&#xdb;" horiz-adv-x="482" d="M229 -60Q177 -46 150 -7T120 101T138 275Q145 310 158 355T188 447T225 539T264 618Q287 659 304 673T337 685Q361 681 373 666T386 633T368 604Q357 591 340 557T304 490Q284 432 269 388T244 304T226 222Q217
180 212 158T206 124T204 104T203 81Q211 68 216 58T229 46Q246 38 263 38T302 50Q307 60 315 64T323 68Q325 63 327 65T331 72Q330 76 333 79T340 87Q348 90 360 104T385 135T405 168T414 187Q414 192 418 196T427 206Q432 211 447 238T481 303T515 371Q518 382
526 406T543 463T562 527T578 585T588 623Q590 636 594 644T599 657Q610 666 624 662T650 651T669 640Q675 632 674 620T668 584T652 513Q631 431 602 362T538 216Q538 216 538 216T538 210Q526 203 519 189Q514 180 511 174T502 164Q499 155 496 148T493 141Q492
136 486 132T474 124Q469 122 468 116T464 106Q442 73 410 40T345 -19T284 -54Q266 -61 255 -62T229 -60ZM703 727Q686 710 672 715T654 737T658 768Q661 772 673 783T703 810T736 837T763 856Q776 867 789 865T809 853Q821 843 838 827T871 794T894 767Q900 755
897 742T883 721T860 714T834 733Q827 739 812 754T782 783Q770 776 754 765T724 744T703 727Z" />
<glyph unicode="&#xdc;" horiz-adv-x="482" d="M229 -60Q177 -46 150 -7T120 101T138 275Q145 310 158 355T188 447T225 539T264 618Q287 659 304 673T337 685Q361 681 373 666T386 633T368 604Q357 591 340 557T304 490Q284 432 269 388T244 304T226 222Q217
180 212 158T206 124T204 104T203 81Q211 68 216 58T229 46Q246 38 263 38T302 50Q307 60 315 64T323 68Q325 63 327 65T331 72Q330 76 333 79T340 87Q348 90 360 104T385 135T405 168T414 187Q414 192 418 196T427 206Q432 211 447 238T481 303T515 371Q518 382
526 406T543 463T562 527T578 585T588 623Q590 636 594 644T599 657Q610 666 624 662T650 651T669 640Q675 632 674 620T668 584T652 513Q631 431 602 362T538 216Q538 216 538 216T538 210Q526 203 519 189Q514 180 511 174T502 164Q499 155 496 148T493 141Q492
136 486 132T474 124Q469 122 468 116T464 106Q442 73 410 40T345 -19T284 -54Q266 -61 255 -62T229 -60ZM810 746Q803 753 798 768T794 788Q796 793 802 809T812 829Q817 836 828 847T843 860Q854 872 870 866T894 844Q913 821 906 800T879 758Q859 727 842 729T810
746ZM666 736Q652 746 645 763T640 787Q642 801 653 821T671 847Q674 849 680 854T692 862Q705 871 716 866T736 849T748 826Q755 813 750 797T728 763Q712 742 698 734T666 736Z" />
<glyph unicode="&#xdd;" horiz-adv-x="504" d="M314 259L279 303Q259 333 247 359T230 423Q223 447 221 468T219 516T221 585Q222 623 233 647T248 680Q269 698 282 687T302 650T308 595Q311 488 321 433T348 365Q360 362 369 367T392 389T433 433Q461 462 489
494T542 557T588 609T621 638Q625 644 635 648T654 655T664 658Q672 656 673 646T681 625Q683 621 690 613T696 600Q696 597 687 587T668 566T653 551Q640 540 613 513T556 454T507 397Q463 346 429 309T386 265Q385 263 373 263T356 254L314 259ZM258 -76Q254
-75 242 -67T219 -52Q212 -44 211 -35T213 -11T224 31Q225 54 233 87T254 142Q254 153 259 172T271 211T285 247L303 299L343 333L395 297Q391 291 388 283T380 256T365 197Q357 170 348 139T330 81T316 37Q304 -8 295 -34T277 -69T258 -76ZM713 715Q706 722 703
732T700 768Q701 773 713 788T743 822T779 856T808 875Q821 880 835 865T851 827Q853 819 842 807T814 781T781 754T757 729Q747 713 736 711T713 715Z" />
<glyph unicode="&#xde;" horiz-adv-x="472" d="M123 -87Q118 -84 107 -80T87 -68T77 -52Q76 -49 76 -43T78 -23T87 15Q88 18 94 40T110 92T128 152T143 200T151 216Q152 221 157 237T167 257Q168 266 172 280T183 308T196 327Q196 333 201 347T213 376T226 403T233
414Q233 414 234 420T246 439Q246 439 247 449T257 465Q261 480 262 485T259 493Q250 519 275 520Q281 520 289 537Q291 541 293 542Q306 576 318 609T337 665T345 693Q345 701 360 705T383 709Q386 712 390 713T399 714L415 698Q423 691 424 682T426 661Q426 649
425 642T417 621T393 571Q407 573 416 575T426 577Q440 577 462 575T498 570Q534 553 556 521T581 466Q583 454 577 429T562 374T541 322T521 292Q526 293 517 281T495 257T474 242Q474 242 467 230T447 210Q435 203 422 194T400 172Q400 180 395 178T384 170T374
162Q329 135 287 127Q282 123 272 122T251 121L217 126L201 84Q194 53 186 28T171 -27Q168 -45 159 -60T139 -83T123 -87ZM252 209Q301 208 332 225T390 268Q397 275 409 289T435 319T458 349Q472 369 478 393T485 438T481 468Q470 485 450 488T407 486T367 471Q362
469 352 451T328 404T300 345T275 284T257 235T252 209Z" />
<glyph unicode="&#xdf;" horiz-adv-x="398" d="M79 -229Q63 -225 44 -209T22 -176Q24 -174 23 -159T22 -139Q27 -130 27 -114T27 -76Q33 -61 34 -49T36 -32Q36 -32 40 -15T50 26T62 73T73 109Q76 123 80 139T88 162Q93 176 98 192T114 237Q113 245 118 263T132
302T151 338Q156 369 166 391T177 414Q181 410 181 410T177 414Q174 418 174 425T176 439Q188 446 190 453T193 461Q193 463 204 478T230 514T262 555T287 586Q307 605 332 625T377 650Q390 653 406 654T434 655T448 656Q453 657 468 649T498 630T519 606Q533 570
527 524T489 436Q477 417 465 407T452 397Q452 397 444 389T430 367Q420 358 414 350T405 341Q402 341 397 333T388 316T387 300Q387 300 385 297T382 294Q375 294 378 282T389 256T401 232Q408 231 415 218T430 183Q432 156 434 144T437 114Q434 85 417 62T376
25T326 9Q300 5 287 8T251 19Q223 30 209 54T204 97Q206 101 209 102T213 102Q221 102 222 102T224 103Q224 103 232 103T254 102Q269 101 275 98T286 95T296 104Q307 106 314 106T322 107Q323 107 323 116Q322 117 323 117Q323 117 333 122T341 137Q340 151 338
162T322 190Q314 213 302 232T281 264T269 278Q264 284 267 294T272 310Q274 316 276 318T278 321Q278 322 290 337T318 371T348 408T365 430Q382 441 398 456T414 475Q409 489 428 513Q442 536 446 546T444 570Q428 580 407 574T360 539Q353 531 341 517T327 502Q313
484 294 451T256 378T225 303Q229 296 223 281T207 258Q209 244 208 233T207 221Q207 214 204 209T201 204Q196 204 195 204T194 203Q194 203 191 189T180 155Q170 127 165 113T158 83T151 38Q138 -2 132 -29T121 -79Q120 -83 120 -92T122 -108Q120 -115 118 -130T113
-163T111 -193Q111 -212 104 -221T79 -229Z" />
<glyph unicode="&#xe0;" horiz-adv-x="437" d="M376 21Q372 29 359 37T345 49Q345 53 341 61T332 74Q327 80 335 103T359 161T394 230Q402 238 410 251T422 268Q422 272 425 275T432 279L440 295Q442 299 452 311T478 337T508 365T534 384Q555 398 577 397T616
383Q619 380 629 371T653 351T677 331L714 298L697 248Q684 208 690 178T709 126Q714 115 722 109T745 101Q753 100 760 95T767 79Q767 55 759 45T740 32Q707 28 677 39T623 96Q619 102 613 118T605 140Q601 135 595 128T582 114Q511 42 461 21T376 21ZM431 104Q438
103 453 111T493 140Q527 169 549 188T592 237L614 273Q604 296 596 303T580 310Q567 310 549 294T509 246T458 167Q445 145 438 125T431 104ZM384 426Q371 416 364 419T352 446Q348 461 337 479T315 517T300 552T303 578Q308 586 321 597T349 604Q358 601 368
586T388 550T405 506T418 465Q419 462 413 454T398 437T384 426Z" />
<glyph unicode="&#xe1;" horiz-adv-x="437" d="M376 21Q372 29 359 37T345 49Q345 53 341 61T332 74Q327 80 335 103T359 161T394 230Q402 238 410 251T422 268Q422 272 425 275T432 279L440 295Q442 299 452 311T478 337T508 365T534 384Q555 398 577 397T616
383Q619 380 629 371T653 351T677 331L714 298L697 248Q684 208 690 178T709 126Q714 115 722 109T745 101Q753 100 760 95T767 79Q767 55 759 45T740 32Q707 28 677 39T623 96Q619 102 613 118T605 140Q601 135 595 128T582 114Q511 42 461 21T376 21ZM431 104Q438
103 453 111T493 140Q527 169 549 188T592 237L614 273Q604 296 596 303T580 310Q567 310 549 294T509 246T458 167Q445 145 438 125T431 104ZM385 435Q376 440 373 456T372 488Q373 493 385 508T416 543T453 577T484 596Q498 597 510 583T523 547Q523 536 513
525T488 503T458 479T432 453Q422 437 410 432T385 435Z" />
<glyph unicode="&#xe2;" horiz-adv-x="437" d="M376 21Q372 29 359 37T345 49Q345 53 341 61T332 74Q327 80 335 103T359 161T394 230Q402 238 410 251T422 268Q422 272 425 275T432 279L440 295Q442 299 452 311T478 337T508 365T534 384Q555 398 577 397T616
383Q619 380 629 371T653 351T677 331L714 298L697 248Q684 208 690 178T709 126Q714 115 722 109T745 101Q753 100 760 95T767 79Q767 55 759 45T740 32Q707 28 677 39T623 96Q619 102 613 118T605 140Q601 135 595 128T582 114Q511 42 461 21T376 21ZM431 104Q438
103 453 111T493 140Q527 169 549 188T592 237L614 273Q604 296 596 303T580 310Q567 310 549 294T509 246T458 167Q445 145 438 125T431 104ZM301 441Q284 424 270 430T252 452T258 483Q261 487 273 498T301 524T333 550T359 568Q376 581 389 578T409 566Q421
556 438 539T471 506T488 488Q499 476 498 462T486 438T463 428T435 444Q428 453 412 468T381 497Q369 490 353 479T322 458T301 441Z" />
<glyph unicode="&#xe3;" horiz-adv-x="437" d="M376 21Q372 29 359 37T345 49Q345 53 341 61T332 74Q327 80 335 103T359 161T394 230Q402 238 410 251T422 268Q422 272 425 275T432 279L440 295Q442 299 452 311T478 337T508 365T534 384Q555 398 577 397T616
383Q619 380 629 371T653 351T677 331L714 298L697 248Q684 208 690 178T709 126Q714 115 722 109T745 101Q753 100 760 95T767 79Q767 55 759 45T740 32Q707 28 677 39T623 96Q619 102 613 118T605 140Q601 135 595 128T582 114Q511 42 461 21T376 21ZM431 104Q438
103 453 111T493 140Q527 169 549 188T592 237L614 273Q604 296 596 303T580 310Q567 310 549 294T509 246T458 167Q445 145 438 125T431 104ZM431 416Q411 416 399 423T367 444Q358 449 343 464T316 479Q306 479 300 471T287 455T270 444Q269 439 264 432T257
429Q242 431 235 441T227 464Q227 473 242 499T292 543Q304 548 325 547T363 531Q386 510 402 501T438 499Q453 503 471 513T511 532Q518 535 525 529T536 512T539 496Q539 492 535 480T511 457Q481 440 465 431T442 419T431 416Z" />
<glyph unicode="&#xe4;" horiz-adv-x="437" d="M376 21Q372 29 359 37T345 49Q345 53 341 61T332 74Q327 80 335 103T359 161T394 230Q402 238 410 251T422 268Q422 272 425 275T432 279L440 295Q442 299 452 311T478 337T508 365T534 384Q555 398 577 397T616
383Q619 380 629 371T653 351T677 331L714 298L697 248Q684 208 690 178T709 126Q714 115 722 109T745 101Q753 100 760 95T767 79Q767 55 759 45T740 32Q707 28 677 39T623 96Q619 102 613 118T605 140Q601 135 595 128T582 114Q511 42 461 21T376 21ZM431 104Q438
103 453 111T493 140Q527 169 549 188T592 237L614 273Q604 296 596 303T580 310Q567 310 549 294T509 246T458 167Q445 145 438 125T431 104ZM279 429Q269 437 264 453T260 476Q262 483 269 501T292 533Q296 536 300 541T310 548Q324 559 338 552T364 524Q375
501 371 486T344 445Q325 420 310 418T279 429ZM434 429Q424 437 419 453T415 476Q417 483 424 501T447 533Q451 536 455 541T465 548Q479 559 493 552T519 524Q530 501 526 486T499 445Q480 420 465 418T434 429Z" />
<glyph unicode="&#xe5;" horiz-adv-x="437" d="M376 21Q372 29 359 37T345 49Q345 53 341 61T332 74Q327 80 335 103T359 161T394 230Q402 238 410 251T422 268Q422 272 425 275T432 279L440 295Q442 299 452 311T478 337T508 365T534 384Q555 398 577 397T616
383Q619 380 629 371T653 351T677 331L714 298L697 248Q684 208 690 178T709 126Q714 115 722 109T745 101Q753 100 760 95T767 79Q767 55 759 45T740 32Q707 28 677 39T623 96Q619 102 613 118T605 140Q601 135 595 128T582 114Q511 42 461 21T376 21ZM431 104Q438
103 453 111T493 140Q527 169 549 188T592 237L614 273Q604 296 596 303T580 310Q567 310 549 294T509 246T458 167Q445 145 438 125T431 104ZM405 400Q366 400 349 423T328 479Q328 501 337 526T365 570T407 589Q444 589 469 573T494 522Q494 494 483 466T453
419T405 400ZM404 458Q420 458 429 468T438 498Q437 509 434 519T416 529Q383 529 383 487Q383 478 390 468T404 458Z" />
<glyph unicode="&#xe6;" horiz-adv-x="574" d="M118 19Q110 29 96 37T83 50Q83 54 80 60T71 75Q67 82 73 102T95 157T138 236Q149 246 156 263T170 279Q171 281 172 283T175 288L176 290Q179 300 188 311T210 334T236 356T259 372Q286 389 300 394T326 396T351
385Q357 381 370 370T398 346T423 324L452 298L435 244Q436 222 428 205T404 156L363 91L352 115Q350 120 347 127T343 140Q339 135 328 123T311 104Q262 56 226 35T163 11T118 19ZM169 105Q172 103 184 107T216 126Q236 145 260 164T307 206T339 252L352 273Q342
296 334 303T318 310Q305 310 284 291T241 239T198 166Q188 146 179 126T169 105ZM531 16Q497 -1 464 0T405 13T365 45Q343 76 343 107T344 176Q348 218 370 259T422 334T481 380Q504 392 525 395T563 396Q589 394 608 385T635 365Q651 348 655 334T658 308T656
287Q646 257 620 225T558 181Q536 174 517 173T466 178Q443 183 433 177T423 147Q423 118 432 103T459 84Q469 82 481 83T504 88Q518 93 527 100T544 114T556 125Q561 129 566 131T577 133Q584 133 595 123T611 99Q609 87 596 70T566 38T531 16ZM520 242Q528 243
543 255T570 280T582 299Q582 310 570 318T536 324Q523 321 511 311T487 289T468 267T458 253Q460 248 471 245T497 242T520 242Z" />
<glyph unicode="&#xe7;" horiz-adv-x="355" d="M473 -4Q444 -9 416 1T369 33T350 88Q347 118 355 159T381 243T422 314Q442 338 462 358T498 385Q512 391 532 394T561 398Q577 394 596 385T616 364Q616 364 618 362T621 359Q627 359 634 345T646 312T644 282Q640
263 629 245T609 227Q605 227 602 227T598 221Q598 216 588 216T566 220T552 232Q552 237 554 245T560 272Q566 300 561 309T536 311Q511 297 495 279T467 227T439 135Q433 112 437 99T445 85Q459 81 475 83T503 92Q519 100 531 109T559 130Q564 133 568 141T580
154Q588 166 600 166T625 167Q633 165 642 157T655 142T654 131Q650 131 650 129T649 126Q651 122 641 108T614 78T584 51T563 39Q553 39 553 33Q553 31 539 23T506 7T473 -4ZM193 -193Q178 -196 153 -192T107 -181T79 -173Q67 -169 61 -158T56 -134T67 -116T99
-115Q115 -119 133 -125T167 -132T189 -118Q196 -107 188 -96T169 -72Q162 -63 156 -57T138 -40Q130 -29 129 -15T144 18T209 60L265 30Q240 18 225 7T209 -17Q223 -37 240 -55T262 -94Q268 -118 259 -139T231 -174T193 -193Z" />
<glyph unicode="&#xe8;" horiz-adv-x="325" d="M545 20Q515 3 482 1T419 9T372 44Q362 57 353 85T350 163Q356 209 378 256T434 339T506 388Q520 393 534 395T573 396Q596 393 614 385T640 366Q656 350 661 335T665 306Q660 274 637 237T571 182Q554 175 531 173T468
179Q444 184 437 174T430 135Q432 117 438 104T463 85Q486 81 496 84T521 95Q529 100 536 106T551 118T564 127Q569 131 574 132T584 133Q595 132 605 121T618 100Q618 92 608 78T582 48T545 20ZM532 243Q539 246 552 257T577 280T588 300Q588 311 574 319T536
322Q528 320 517 311T495 291T476 269T465 252Q469 247 481 244T507 241T532 243ZM582 426Q569 416 562 419T550 446Q546 461 535 479T513 517T498 552T501 578Q506 586 519 597T547 604Q556 601 566 586T586 550T603 506T616 465Q617 462 611 454T596 437T582
426Z" />
<glyph unicode="&#xe9;" horiz-adv-x="325" d="M545 20Q515 3 482 1T419 9T372 44Q362 57 353 85T350 163Q356 209 378 256T434 339T506 388Q520 393 534 395T573 396Q596 393 614 385T640 366Q656 350 661 335T665 306Q660 274 637 237T571 182Q554 175 531 173T468
179Q444 184 437 174T430 135Q432 117 438 104T463 85Q486 81 496 84T521 95Q529 100 536 106T551 118T564 127Q569 131 574 132T584 133Q595 132 605 121T618 100Q618 92 608 78T582 48T545 20ZM532 243Q539 246 552 257T577 280T588 300Q588 311 574 319T536
322Q528 320 517 311T495 291T476 269T465 252Q469 247 481 244T507 241T532 243ZM583 435Q574 440 571 456T570 488Q571 493 583 508T614 543T651 577T682 596Q696 597 708 583T721 547Q721 536 711 525T686 503T656 479T630 453Q620 437 608 432T583 435Z" />
<glyph unicode="&#xea;" horiz-adv-x="325" d="M545 20Q515 3 482 1T419 9T372 44Q362 57 353 85T350 163Q356 209 378 256T434 339T506 388Q520 393 534 395T573 396Q596 393 614 385T640 366Q656 350 661 335T665 306Q660 274 637 237T571 182Q554 175 531 173T468
179Q444 184 437 174T430 135Q432 117 438 104T463 85Q486 81 496 84T521 95Q529 100 536 106T551 118T564 127Q569 131 574 132T584 133Q595 132 605 121T618 100Q618 92 608 78T582 48T545 20ZM532 243Q539 246 552 257T577 280T588 300Q588 311 574 319T536
322Q528 320 517 311T495 291T476 269T465 252Q469 247 481 244T507 241T532 243ZM499 441Q482 424 468 430T450 452T456 483Q459 487 471 498T499 524T531 550T557 568Q574 581 587 578T607 566Q619 556 636 539T669 506T686 488Q697 476 696 462T684 438T661
428T633 444Q626 453 610 468T579 497Q567 490 551 479T520 458T499 441Z" />
<glyph unicode="&#xeb;" horiz-adv-x="325" d="M545 20Q515 3 482 1T419 9T372 44Q362 57 353 85T350 163Q356 209 378 256T434 339T506 388Q520 393 534 395T573 396Q596 393 614 385T640 366Q656 350 661 335T665 306Q660 274 637 237T571 182Q554 175 531 173T468
179Q444 184 437 174T430 135Q432 117 438 104T463 85Q486 81 496 84T521 95Q529 100 536 106T551 118T564 127Q569 131 574 132T584 133Q595 132 605 121T618 100Q618 92 608 78T582 48T545 20ZM532 243Q539 246 552 257T577 280T588 300Q588 311 574 319T536
322Q528 320 517 311T495 291T476 269T465 252Q469 247 481 244T507 241T532 243ZM477 429Q467 437 462 453T458 476Q460 483 467 501T490 533Q494 536 498 541T508 548Q522 559 536 552T562 524Q573 501 569 486T542 445Q523 420 508 418T477 429ZM632 429Q622
437 617 453T613 476Q615 483 622 501T645 533Q649 536 653 541T663 548Q677 559 691 552T717 524Q728 501 724 486T697 445Q678 420 663 418T632 429Z" />
<glyph unicode="&#xec;" horiz-adv-x="187" d="M100 17Q92 25 89 41T86 72T91 96Q91 104 93 108T95 117Q94 121 97 131T103 150Q110 166 119 191T137 243T152 289T159 313Q159 325 175 326Q187 330 204 316T231 286Q239 278 237 265T224 228Q220 220 215 202T207
171Q203 163 198 149T188 121Q186 116 184 103T179 75T171 53Q162 12 140 5T100 17ZM501 426Q488 416 481 419T469 446Q465 461 454 479T432 517T417 552T420 578Q425 586 438 597T466 604Q475 601 485 586T505 550T522 506T535 465Q536 462 530 454T515 437T501
426Z" />
<glyph unicode="&#xed;" horiz-adv-x="187" d="M100 17Q92 25 89 41T86 72T91 96Q91 104 93 108T95 117Q94 121 97 131T103 150Q110 166 119 191T137 243T152 289T159 313Q159 325 175 326Q187 330 204 316T231 286Q239 278 237 265T224 228Q220 220 215 202T207
171Q203 163 198 149T188 121Q186 116 184 103T179 75T171 53Q162 12 140 5T100 17ZM492 435Q483 440 480 456T479 488Q480 493 492 508T523 543T560 577T591 596Q605 597 617 583T630 547Q630 536 620 525T595 503T565 479T539 453Q529 437 517 432T492 435Z"
/>
<glyph unicode="&#xee;" horiz-adv-x="187" d="M100 17Q92 25 89 41T86 72T91 96Q91 104 93 108T95 117Q94 121 97 131T103 150Q110 166 119 191T137 243T152 289T159 313Q159 325 175 326Q187 330 204 316T231 286Q239 278 237 265T224 228Q220 220 215 202T207
171Q203 163 198 149T188 121Q186 116 184 103T179 75T171 53Q162 12 140 5T100 17ZM428 441Q411 424 397 430T379 452T385 483Q388 487 400 498T428 524T460 550T486 568Q503 581 516 578T536 566Q548 556 565 539T598 506T615 488Q626 476 625 462T613 438T590
428T562 444Q555 453 539 468T508 497Q496 490 480 479T449 458T428 441Z" />
<glyph unicode="&#xef;" horiz-adv-x="187" d="M100 17Q92 25 89 41T86 72T91 96Q91 104 93 108T95 117Q94 121 97 131T103 150Q110 166 119 191T137 243T152 289T159 313Q159 325 175 326Q187 330 204 316T231 286Q239 278 237 265T224 228Q220 220 215 202T207
171Q203 163 198 149T188 121Q186 116 184 103T179 75T171 53Q162 12 140 5T100 17ZM396 429Q386 437 381 453T377 476Q379 483 386 501T409 533Q413 536 417 541T427 548Q441 559 455 552T481 524Q492 501 488 486T461 445Q442 420 427 418T396 429ZM551 429Q541
437 536 453T532 476Q534 483 541 501T564 533Q568 536 572 541T582 548Q596 559 610 552T636 524Q647 501 643 486T616 445Q597 420 582 418T551 429Z" />
<glyph unicode="&#xf0;" horiz-adv-x="349" d="M180 -8Q167 -10 160 -6T141 8Q128 21 115 37T93 71T86 99Q89 108 87 115T85 122Q80 127 82 128T86 134Q92 135 90 146Q89 151 92 166T102 202T120 238Q125 248 135 265T159 299T185 327Q208 350 233 365T281 387Q303
392 308 392T329 377Q331 375 333 375Q328 422 316 463T266 556Q251 572 240 581T221 604Q221 607 230 616T252 635T270 645Q275 648 284 644T303 633T314 623Q318 627 327 615T356 577Q388 536 404 481T421 364T409 245T368 138Q346 100 321 77T268 34Q247 19
225 7T180 -8ZM256 124Q271 144 282 157T304 185T323 226Q325 237 327 253T330 284T324 301Q312 308 294 305T258 283Q227 255 211 221T175 136Q165 108 174 94T205 86T256 124ZM252 449Q237 445 227 450T212 460Q199 473 209 484T255 506Q286 521 317 531T389
549Q405 553 418 553T442 552T462 543Q479 532 475 515T447 496Q440 494 419 488T380 476Q370 473 343 465T287 451Q281 450 272 449T252 449Z" />
<glyph unicode="&#xf1;" horiz-adv-x="450" d="M695 24Q673 26 659 33T635 64Q631 80 631 97T634 131T636 160Q636 162 636 168T636 179Q634 194 629 197T610 196Q589 186 565 170T514 132T459 86Q437 62 427 47T405 32Q397 28 388 34T369 48Q362 56 353 68T341
85Q341 101 343 114T351 141T365 173Q369 180 372 187T381 204Q385 218 392 236T407 270Q418 296 424 315T434 356Q433 358 435 362T441 367H442H443Q450 372 469 369T499 357Q520 339 519 310T489 234Q482 218 475 205T467 186Q467 186 475 192T494 206T513 220Q518
225 535 238T572 267T604 290Q615 298 632 306T653 315Q663 315 677 308T704 292T719 274Q719 270 718 264T717 252Q716 236 716 214T717 169T713 128Q713 128 714 127T716 122Q715 121 715 119T716 116Q718 109 720 102T727 87T736 65Q735 52 722 40T695 24ZM437
416Q417 416 405 423T373 444Q364 449 349 464T322 479Q312 479 306 471T293 455T276 444Q275 439 270 432T263 429Q248 431 241 441T233 464Q233 473 248 499T298 543Q310 548 331 547T369 531Q392 510 408 501T444 499Q459 503 477 513T517 532Q524 535 531 529T542
512T545 496Q545 492 541 480T517 457Q487 440 471 431T448 419T437 416Z" />
<glyph unicode="&#xf2;" horiz-adv-x="353" d="M420 7Q407 7 400 12T381 26Q362 46 351 69T342 109Q345 117 345 124T344 132Q339 137 341 138T345 144Q351 144 349 155Q347 163 355 189T379 240Q385 250 397 266T423 299T450 326Q475 347 496 360T540 378Q562
383 585 383T624 367Q647 357 656 340T669 296Q672 266 663 223T614 122Q589 86 565 66T512 29Q491 15 467 12T420 7ZM522 129Q544 148 553 171T574 225Q578 231 579 245T580 272T573 288Q564 295 555 292T532 278Q502 253 477 221T441 141Q438 116 446 104T474
96T522 129ZM341 426Q328 416 321 419T309 446Q305 461 294 479T272 517T257 552T260 578Q265 586 278 597T306 604Q315 601 325 586T345 550T362 506T375 465Q376 462 370 454T355 437T341 426Z" />
<glyph unicode="&#xf3;" horiz-adv-x="353" d="M420 7Q407 7 400 12T381 26Q362 46 351 69T342 109Q345 117 345 124T344 132Q339 137 341 138T345 144Q351 144 349 155Q347 163 355 189T379 240Q385 250 397 266T423 299T450 326Q475 347 496 360T540 378Q562
383 585 383T624 367Q647 357 656 340T669 296Q672 266 663 223T614 122Q589 86 565 66T512 29Q491 15 467 12T420 7ZM522 129Q544 148 553 171T574 225Q578 231 579 245T580 272T573 288Q564 295 555 292T532 278Q502 253 477 221T441 141Q438 116 446 104T474
96T522 129ZM598 435Q589 440 586 456T585 488Q586 493 598 508T629 543T666 577T697 596Q711 597 723 583T736 547Q736 536 726 525T701 503T671 479T645 453Q635 437 623 432T598 435Z" />
<glyph unicode="&#xf4;" horiz-adv-x="353" d="M420 7Q407 7 400 12T381 26Q362 46 351 69T342 109Q345 117 345 124T344 132Q339 137 341 138T345 144Q351 144 349 155Q347 163 355 189T379 240Q385 250 397 266T423 299T450 326Q475 347 496 360T540 378Q562
383 585 383T624 367Q647 357 656 340T669 296Q672 266 663 223T614 122Q589 86 565 66T512 29Q491 15 467 12T420 7ZM522 129Q544 148 553 171T574 225Q578 231 579 245T580 272T573 288Q564 295 555 292T532 278Q502 253 477 221T441 141Q438 116 446 104T474
96T522 129ZM514 441Q497 424 483 430T465 452T471 483Q474 487 486 498T514 524T546 550T572 568Q589 581 602 578T622 566Q634 556 651 539T684 506T701 488Q712 476 711 462T699 438T676 428T648 444Q641 453 625 468T594 497Q582 490 566 479T535 458T514 441Z"
/>
<glyph unicode="&#xf5;" horiz-adv-x="353" d="M420 7Q407 7 400 12T381 26Q362 46 351 69T342 109Q345 117 345 124T344 132Q339 137 341 138T345 144Q351 144 349 155Q347 163 355 189T379 240Q385 250 397 266T423 299T450 326Q475 347 496 360T540 378Q562
383 585 383T624 367Q647 357 656 340T669 296Q672 266 663 223T614 122Q589 86 565 66T512 29Q491 15 467 12T420 7ZM522 129Q544 148 553 171T574 225Q578 231 579 245T580 272T573 288Q564 295 555 292T532 278Q502 253 477 221T441 141Q438 116 446 104T474
96T522 129ZM388 416Q368 416 356 423T324 444Q315 449 300 464T273 479Q263 479 257 471T244 455T227 444Q226 439 221 432T214 429Q199 431 192 441T184 464Q184 473 199 499T249 543Q261 548 282 547T320 531Q343 510 359 501T395 499Q410 503 428 513T468 532Q475
535 482 529T493 512T496 496Q496 492 492 480T468 457Q438 440 422 431T399 419T388 416Z" />
<glyph unicode="&#xf6;" horiz-adv-x="353" d="M420 7Q407 7 400 12T381 26Q362 46 351 69T342 109Q345 117 345 124T344 132Q339 137 341 138T345 144Q351 144 349 155Q347 163 355 189T379 240Q385 250 397 266T423 299T450 326Q475 347 496 360T540 378Q562
383 585 383T624 367Q647 357 656 340T669 296Q672 266 663 223T614 122Q589 86 565 66T512 29Q491 15 467 12T420 7ZM522 129Q544 148 553 171T574 225Q578 231 579 245T580 272T573 288Q564 295 555 292T532 278Q502 253 477 221T441 141Q438 116 446 104T474
96T522 129ZM236 429Q226 437 221 453T217 476Q219 483 226 501T249 533Q253 536 257 541T267 548Q281 559 295 552T321 524Q332 501 328 486T301 445Q282 420 267 418T236 429ZM391 429Q381 437 376 453T372 476Q374 483 381 501T404 533Q408 536 412 541T422
548Q436 559 450 552T476 524Q487 501 483 486T456 445Q437 420 422 418T391 429Z" />
<glyph unicode="&#xf7;" horiz-adv-x="446" d="M170 172Q164 172 155 172T135 177Q120 177 112 183T99 197Q88 212 100 220T150 233Q167 237 200 239T273 243T347 246T402 247Q428 247 448 242T480 226Q495 211 487 195T456 182Q451 182 437 181T407 179T378 177Q372
177 345 176T283 174T216 173T170 172ZM212 -13Q201 -5 196 6T190 26T191 38Q201 49 208 67T225 100Q227 104 230 109T238 115Q250 123 271 114T303 89Q312 70 309 50T287 8Q272 -12 249 -17T212 -13ZM304 316Q293 324 288 335T281 355T282 366Q293 378 300 396T316
429Q318 432 321 437T329 444Q341 452 362 443T394 417Q403 398 400 378T378 336Q363 316 341 311T304 316Z" />
<glyph unicode="&#xf8;" horiz-adv-x="353" d="M69 -15Q50 -10 54 10T83 56Q139 110 192 167T313 272Q322 277 342 292T385 326T424 360T443 378Q448 391 457 385T471 367Q474 356 463 345Q460 338 456 334T441 322T408 298Q371 273 338 246T268 187Q255 176 234
156T189 113T142 67T104 28T85 6Q78 -7 76 -11T69 -15ZM283 134Q300 153 311 170T334 220Q338 231 341 248T344 281T339 299Q326 307 310 304T271 281Q251 264 238 248T214 210T188 150Q177 123 177 103T190 77T225 82T283 134ZM198 -9Q185 -10 177 -7T157 4Q135
21 121 46T107 88Q109 97 108 104T106 111Q100 116 102 117T105 123Q113 125 107 134Q104 142 110 170T128 224Q133 235 142 253T164 289T186 319Q208 344 225 360T265 384Q285 392 305 391T342 377Q366 370 385 356T411 315Q419 286 417 247T382 145Q363 106 345
82T300 36Q281 20 251 8T198 -9Z" />
<glyph unicode="&#xf9;" horiz-adv-x="370" d="M336 2Q326 12 320 29T308 70Q306 78 306 88T306 104Q303 97 297 86T284 70Q280 66 266 55T238 36Q205 15 180 16T135 42Q119 55 109 75T105 123Q107 158 115 191T148 281Q169 322 180 345T194 372Q209 377 231 372T255
352Q261 342 255 315T231 252Q217 218 205 186T190 132T201 105Q210 100 227 106T269 142T320 237Q328 257 332 272T337 307Q335 319 343 332T364 352Q368 357 375 361T384 361L400 362Q404 363 409 354T419 341Q430 332 429 302T405 218Q386 177 380 156T372 115Q372
97 375 85T393 59Q404 52 405 36T406 7Q404 -2 391 -5T362 -7T336 2ZM586 428Q573 418 566 421T554 448Q550 463 539 481T517 519T502 554T505 580Q510 588 523 599T551 606Q560 603 570 588T590 552T607 508T620 467Q621 464 615 456T600 439T586 428Z" />
<glyph unicode="&#xfa;" horiz-adv-x="370" d="M336 2Q326 12 320 29T308 70Q306 78 306 88T306 104Q303 97 297 86T284 70Q280 66 266 55T238 36Q205 15 180 16T135 42Q119 55 109 75T105 123Q107 158 115 191T148 281Q169 322 180 345T194 372Q209 377 231 372T255
352Q261 342 255 315T231 252Q217 218 205 186T190 132T201 105Q210 100 227 106T269 142T320 237Q328 257 332 272T337 307Q335 319 343 332T364 352Q368 357 375 361T384 361L400 362Q404 363 409 354T419 341Q430 332 429 302T405 218Q386 177 380 156T372 115Q372
97 375 85T393 59Q404 52 405 36T406 7Q404 -2 391 -5T362 -7T336 2ZM563 688Q554 693 551 709T550 741Q551 746 563 761T594 796T631 830T662 849Q676 850 688 836T701 800Q701 789 691 778T666 756T636 732T610 706Q600 690 588 685T563 688Z" />
<glyph unicode="&#xfb;" horiz-adv-x="370" d="M336 2Q326 12 320 29T308 70Q306 78 306 88T306 104Q303 97 297 86T284 70Q280 66 266 55T238 36Q205 15 180 16T135 42Q119 55 109 75T105 123Q107 158 115 191T148 281Q169 322 180 345T194 372Q209 377 231 372T255
352Q261 342 255 315T231 252Q217 218 205 186T190 132T201 105Q210 100 227 106T269 142T320 237Q328 257 332 272T337 307Q335 319 343 332T364 352Q368 357 375 361T384 361L400 362Q404 363 409 354T419 341Q430 332 429 302T405 218Q386 177 380 156T372 115Q372
97 375 85T393 59Q404 52 405 36T406 7Q404 -2 391 -5T362 -7T336 2ZM268 441Q251 424 237 430T219 452T225 483Q228 487 240 498T268 524T300 550T326 568Q343 581 356 578T376 566Q388 556 405 539T438 506T455 488Q466 476 465 462T453 438T430 428T402 444Q395
453 379 468T348 497Q336 490 320 479T289 458T268 441Z" />
<glyph unicode="&#xfc;" horiz-adv-x="370" d="M336 2Q326 12 320 29T308 70Q306 78 306 88T306 104Q303 97 297 86T284 70Q280 66 266 55T238 36Q205 15 180 16T135 42Q119 55 109 75T105 123Q107 158 115 191T148 281Q169 322 180 345T194 372Q209 377 231 372T255
352Q261 342 255 315T231 252Q217 218 205 186T190 132T201 105Q210 100 227 106T269 142T320 237Q328 257 332 272T337 307Q335 319 343 332T364 352Q368 357 375 361T384 361L400 362Q404 363 409 354T419 341Q430 332 429 302T405 218Q386 177 380 156T372 115Q372
97 375 85T393 59Q404 52 405 36T406 7Q404 -2 391 -5T362 -7T336 2ZM246 429Q236 437 231 453T227 476Q229 483 236 501T259 533Q263 536 267 541T277 548Q291 559 305 552T331 524Q342 501 338 486T311 445Q292 420 277 418T246 429ZM401 429Q391 437 386 453T382
476Q384 483 391 501T414 533Q418 536 422 541T432 548Q446 559 460 552T486 524Q497 501 493 486T466 445Q447 420 432 418T401 429Z" />
<glyph unicode="&#xfd;" horiz-adv-x="341" d="M86 -208Q50 -215 17 -211T-38 -193T-66 -164Q-72 -141 -60 -130T-32 -117T-10 -121Q-2 -126 15 -136T59 -141Q82 -136 100 -119T132 -83Q140 -71 159 -40T198 28T233 98Q236 106 240 117T250 135Q256 147 260 157T266
172Q267 177 275 192T290 222Q295 237 305 266T325 313Q337 336 344 350T361 368V368V368Q370 375 378 375T397 369Q409 357 416 346T423 318T406 273Q398 249 389 230T374 204Q369 192 363 178T351 151Q333 111 320 86T297 40T276 -9Q253 -46 232 -79T186 -142Q176
-151 158 -165T120 -192T86 -208ZM211 18Q196 20 179 38T150 76T140 104Q140 109 140 112T140 115Q134 115 131 132T126 177T124 233T127 286Q131 303 131 323T132 356Q131 372 138 382T150 395V395V395Q187 411 204 378T216 273Q214 233 214 197T221 134T245 97Q252
93 250 80T241 53T226 28T211 18ZM557 435Q548 440 545 456T544 488Q545 493 557 508T588 543T625 577T656 596Q670 597 682 583T695 547Q695 536 685 525T660 503T630 479T604 453Q594 437 582 432T557 435Z" />
<glyph unicode="&#xfe;" horiz-adv-x="378" d="M69 -233Q65 -233 58 -233T45 -223Q41 -218 34 -201T32 -165Q36 -148 39 -134T43 -110Q43 -100 45 -91T48 -76Q53 -68 56 -54T59 -27Q59 -22 63 -16T71 -6Q71 2 74 14T78 32Q81 44 90 73T112 139T137 214T160 281T175
322L179 332L251 308Q300 338 337 340T398 327T435 284T446 232Q446 222 438 203T420 165T403 141Q399 141 395 134T387 119Q378 109 360 97T324 78T298 74Q298 74 296 74T293 68Q293 62 279 56T245 46T209 41Q197 41 191 42T180 48Q177 46 175 42T173 33Q172 26
168 14T157 -7T147 -17Q147 -17 145 -20T147 -28Q147 -28 147 -40T141 -59Q141 -67 139 -83T131 -107Q131 -120 128 -131T119 -142Q114 -143 114 -157T113 -177Q109 -200 97 -216T69 -233ZM199 116Q203 116 223 122T268 139T305 161Q336 187 349 210T347 255Q339
267 326 268T291 257T239 218Q227 205 217 188T201 155T193 127T199 116ZM170 310Q177 325 190 359T219 434T249 515T272 582T283 613Q284 618 285 624T299 641Q302 644 309 645T320 647Q320 647 331 646T350 636Q359 623 362 609T361 577Q359 567 352 547T330
488T286 386L248 292L170 310Z" />
<glyph unicode="&#xff;" horiz-adv-x="341" d="M86 -208Q50 -215 17 -211T-38 -193T-66 -164Q-72 -141 -60 -130T-32 -117T-10 -121Q-2 -126 15 -136T59 -141Q82 -136 100 -119T132 -83Q140 -71 159 -40T198 28T233 98Q236 106 240 117T250 135Q256 147 260 157T266
172Q267 177 275 192T290 222Q295 237 305 266T325 313Q337 336 344 350T361 368V368V368Q370 375 378 375T397 369Q409 357 416 346T423 318T406 273Q398 249 389 230T374 204Q369 192 363 178T351 151Q333 111 320 86T297 40T276 -9Q253 -46 232 -79T186 -142Q176
-151 158 -165T120 -192T86 -208ZM211 18Q196 20 179 38T150 76T140 104Q140 109 140 112T140 115Q134 115 131 132T126 177T124 233T127 286Q131 303 131 323T132 356Q131 372 138 382T150 395V395V395Q187 411 204 378T216 273Q214 233 214 197T221 134T245 97Q252
93 250 80T241 53T226 28T211 18ZM451 429Q441 437 436 453T432 476Q434 483 441 501T464 533Q468 536 472 541T482 548Q496 559 510 552T536 524Q547 501 543 486T516 445Q497 420 482 418T451 429ZM606 429Q596 437 591 453T587 476Q589 483 596 501T619 533Q623
536 627 541T637 548Q651 559 665 552T691 524Q702 501 698 486T671 445Q652 420 637 418T606 429Z" />
<glyph unicode="&#x2013;" horiz-adv-x="446" d="M170 172Q164 172 155 172T135 177Q120 177 112 183T99 197Q88 212 100 220T150 233Q167 237 200 239T273 243T347 246T402 247Q428 247 448 242T480 226Q495 211 487 195T456 182Q451 182 437 181T407 179T378
177Q372 177 345 176T283 174T216 173T170 172Z" />
<glyph unicode="&#x2014;" horiz-adv-x="566" d="M170 173Q164 173 155 173T135 178Q120 178 112 184T99 197Q88 212 100 219T150 231Q164 234 202 236T292 240T396 243T488 244T545 245Q571 245 580 241T600 226Q615 211 607 195T576 183Q569 182 554 181T521
178Q517 178 493 178T432 177T354 176T275 175T208 174T170 173Z" />
<glyph unicode="&#x2018;" horiz-adv-x="117" d="M194 439Q178 450 167 469T160 502Q163 525 170 545T184 584Q190 607 208 632T244 676Q243 680 250 681T268 686Q279 687 293 686T311 667Q313 660 310 655T301 641Q289 622 274 598T253 558Q253 554 252 551Q269
554 287 539Q306 521 297 492T262 444Q244 433 228 433T194 439Z" />
<glyph unicode="&#x2019;" horiz-adv-x="117" d="M218 434Q208 433 194 434T176 453Q175 460 178 466T186 479Q198 499 213 523T234 562Q234 566 235 569Q218 566 200 581Q181 599 189 628T224 676Q242 687 258 688T292 681Q309 671 320 651T326 617Q323 594 316
574T302 535Q296 513 278 489T242 444Q243 440 236 439T218 434Z" />
<glyph unicode="&#x201a;" horiz-adv-x="117" d="M45 -112Q35 -113 21 -113T3 -93Q2 -86 5 -80T13 -67Q25 -47 40 -24T61 15Q61 19 62 22Q45 19 27 34Q8 52 16 82T51 130Q69 141 85 142T119 135Q136 125 147 105T153 71Q150 48 143 28T129 -11Q123 -33 105 -57T69
-102Q70 -106 63 -107T45 -112Z" />
<glyph unicode="&#x201c;" horiz-adv-x="267" d="M371 440Q355 451 344 471T337 504Q340 527 347 547T361 586Q367 609 385 633T421 677Q420 681 427 682T445 687Q456 688 470 688T488 668Q490 661 487 656T478 642Q466 623 451 599T430 560Q430 556 429 553Q446
556 464 541Q483 523 474 493T439 445Q421 434 405 434T371 440ZM193 440Q177 451 166 471T159 504Q162 527 169 547T183 586Q189 609 207 633T243 677Q242 681 249 682T267 687Q278 688 292 688T309 668Q311 661 308 656T299 642Q287 623 272 599T251 560Q251
556 250 553Q267 556 285 541Q304 523 296 493T261 445Q243 434 227 434T193 440Z" />
<glyph unicode="&#x201d;" horiz-adv-x="267" d="M205 424Q195 423 181 423T162 443Q161 450 164 456T172 469Q184 489 199 512T220 551Q220 555 221 558Q204 555 186 570Q167 588 176 618T211 666Q229 677 245 678T279 671Q296 661 307 641T313 607Q310 584 303
564T289 525Q283 503 265 479T229 434Q230 430 223 429T205 424ZM383 424Q373 423 359 423T341 443Q340 450 343 456T351 469Q363 489 378 512T399 551Q399 555 400 558Q383 555 365 570Q346 588 354 618T389 666Q407 677 423 678T457 671Q474 661 485 641T491
607Q488 584 481 564T467 525Q461 503 443 479T407 434Q408 430 401 429T383 424Z" />
<glyph unicode="&#x201e;" horiz-adv-x="267" d="M48 -112Q38 -113 24 -113T5 -93Q4 -86 7 -80T15 -67Q27 -47 42 -24T63 15Q63 19 64 22Q47 19 29 34Q10 52 19 82T54 130Q72 141 88 142T122 135Q139 125 150 105T156 71Q153 48 146 28T132 -11Q126 -33 108 -57T72
-102Q73 -106 66 -107T48 -112ZM226 -112Q216 -113 202 -113T184 -93Q183 -86 186 -80T194 -67Q206 -47 221 -24T242 15Q242 19 243 22Q226 19 208 34Q189 52 197 82T232 130Q250 141 266 142T300 135Q317 125 328 105T334 71Q331 48 324 28T310 -11Q304 -33 286
-57T250 -102Q251 -106 244 -107T226 -112Z" />
<glyph unicode="&#x2022;" horiz-adv-x="187" d="M143 220Q137 226 135 240T133 269T135 288Q142 309 157 336T192 376Q209 384 236 378T276 354Q284 320 277 291T239 227Q224 208 199 206T143 220Z" />
<glyph unicode="&#x2039;" horiz-adv-x="446" d="M406 -6Q398 -7 379 -7T328 8Q292 27 275 36T242 64Q208 84 190 105T154 157L122 199L115 237Q123 239 130 252T139 267Q148 278 162 290T198 320T256 369Q293 396 306 410T330 434Q336 441 344 448T356 456Q362
458 370 455T382 448Q393 441 403 438T414 427Q414 427 412 412T402 390Q389 379 374 368T337 338T275 284Q251 263 240 250T225 228T224 205Q230 192 242 175T281 138T353 91Q378 79 395 58T417 17T406 -6Z" />
<glyph unicode="&#x203a;" horiz-adv-x="446" d="M243 -15Q237 -17 227 -9T211 2Q201 10 191 10T178 19Q178 19 180 27T190 41Q204 53 216 64T250 94T310 148Q345 180 365 201T383 242Q374 262 346 293T247 363Q223 375 203 394T177 429T186 450Q194 451 222 451T281
438Q317 419 334 410T367 382Q401 363 420 341T455 289L479 247L486 217Q481 216 476 208T468 191T463 181Q454 170 440 156T402 122T343 72Q306 45 293 31T269 7Q263 0 256 -7T243 -15Z" />
</font>
</defs>
</svg>
