<?xml version="1.0" standalone="no"?>
<!DOCTYPE svg PUBLIC "-//W3C//DTD SVG 1.1//EN" "http://www.w3.org/Graphics/SVG/1.1/DTD/svg11.dtd">
<svg xmlns="http://www.w3.org/2000/svg">
<defs >
<font id="Caveat" horiz-adv-x="445" ><font-face
    font-family="Caveat SemiBold"
    units-per-em="1000"
    panose-1="0 0 0 0 0 0 0 0 0 0"
    ascent="960"
    descent="-300"
    alphabetic="0" />
<glyph unicode=" " horiz-adv-x="242" />
<glyph unicode="!" horiz-adv-x="210" d="M198 164Q170 159 157 188T160 285Q166 297 170 308T174 327Q178 340 184 357T198 390T208 411Q212 411 216 418T221 432Q221 440 224 450T232 464Q232 469 236 475T240 485Q240 489 242 492T245 499Q254 515 268 546T297
613T322 675T332 708Q334 716 338 722T350 726Q354 729 360 729T371 730Q371 730 378 726T392 714Q400 707 401 696T402 673Q401 654 388 630T359 577Q349 558 340 541T330 520Q330 516 326 508T317 488Q311 478 305 464T295 439T290 424Q289 420 288 416T282 408Q278
408 278 403T277 397Q277 393 273 379T258 344Q239 291 231 260T221 206Q219 182 213 175T198 164ZM145 7Q125 0 112 0T81 13Q62 32 68 52T103 91Q122 103 131 103T159 96Q192 76 188 52T145 7Z" />
<glyph unicode="&quot;" horiz-adv-x="237" d="M200 434Q186 432 179 434T164 442Q162 451 166 461T176 478Q188 498 203 525T224 568Q226 579 230 596T235 633Q235 638 237 647T243 665T252 670Q261 666 273 660T295 645T303 625Q301 601 293 576T278 530Q272
508 257 486T224 444Q225 440 218 439T200 434ZM327 434Q314 432 307 434T292 442Q290 451 294 461T303 478Q315 498 330 525T351 568Q353 579 357 596T362 633Q362 638 364 647T370 665T379 670Q388 666 401 660T423 645T430 625Q428 601 420 576T405 530Q399
508 384 486T351 444Q352 440 345 439T327 434Z" />
<glyph unicode="#" horiz-adv-x="559" d="M398 -145Q379 -150 366 -136T347 -94T350 -28Q355 -16 358 -5T361 14Q363 22 371 49T390 113T413 184T433 244T444 272Q448 272 451 279T454 293Q454 301 457 311T465 325Q465 330 467 336T470 347Q470 351 472 355T475
363Q481 374 493 404T522 476T556 562T588 647T612 713T621 743Q621 751 630 758T647 765Q650 768 654 769T663 770Q663 770 667 766T679 754Q687 747 693 735T700 711Q700 698 697 688T685 659T657 600Q654 592 645 572T626 527T605 479T588 439T581 421Q581 417
578 409T570 389Q566 381 559 366T545 333T532 303T527 288Q527 284 527 280T522 272Q518 272 518 267T517 261Q517 251 501 208Q494 186 484 152T463 78T441 1T425 -63T418 -102Q418 -126 412 -133T398 -145ZM142 175Q136 175 127 175T107 180Q92 180 85 185T73
197Q62 212 73 219T122 230Q133 233 166 235T245 238T341 241T439 242T520 243T569 244Q595 244 604 241T624 226Q639 211 633 196T603 185Q596 184 580 183T545 180Q541 180 513 180T443 179T352 178T260 177T184 176T142 175ZM159 -145Q140 -150 127 -136T109
-94T112 -28Q117 -16 120 -5T123 14Q125 22 133 49T152 113T175 184T195 244T206 272Q210 272 213 279T216 293Q216 301 219 311T227 325Q227 330 229 336T232 347Q232 351 234 355T237 363Q243 374 255 404T284 476T318 562T350 647T374 713T383 743Q383 751 391
758T408 765Q411 768 415 769T424 770Q424 770 428 766T440 754Q448 747 454 735T461 711Q461 698 458 688T446 659T418 600Q415 592 406 572T387 527T366 479T349 439T342 421Q342 417 339 409T331 389Q327 381 320 366T306 333T293 303T288 288Q288 284 288 280T283
272Q279 272 279 267T278 261Q278 251 262 208Q255 186 245 152T224 78T202 1T186 -63T179 -102Q179 -126 173 -133T159 -145ZM203 375Q197 375 188 375T168 380Q153 380 146 385T134 397Q123 412 134 419T183 430Q194 433 227 435T307 438T403 441T500 442T582
443T630 444Q656 444 665 441T685 427Q700 412 694 397T664 385Q657 384 641 383T606 380Q602 380 574 380T504 379T414 378T321 377T245 376T203 375Z" />
<glyph unicode="$" horiz-adv-x="450" d="M173 -124Q156 -126 151 -110T151 -66Q154 -51 158 -34T167 4Q170 10 175 22T187 48T199 77T209 101T214 115Q217 120 224 137T243 178T264 225T282 265T291 285Q295 292 301 300T310 320Q312 329 318 342T333 373T350
407T367 439T379 465T384 481Q385 479 394 495T416 539T445 599T475 661T499 711T510 734Q515 745 525 744Q526 744 530 744T540 740Q541 737 543 734T551 723Q551 716 552 709T551 691T542 659Q540 651 535 640T523 617T508 591T491 561T474 529Q467 516 457 498T436
460T417 425T404 401Q402 397 398 390T390 375T383 361T378 352Q372 340 364 325T349 297T340 279Q338 277 337 272T334 266Q331 265 330 260T325 243T308 214Q299 192 286 159T257 88T228 16T205 -45T194 -83Q193 -109 189 -116T173 -124ZM149 40Q137 41 127 43T113
49Q100 51 85 62T60 90T48 123Q48 136 59 146T86 159T120 154Q106 128 114 115T169 100Q184 99 194 99T220 102Q236 103 249 104T272 109Q314 119 334 134T359 163Q363 177 365 182T368 196Q368 206 368 214T366 232T352 257T315 294Q311 304 299 318T273 340Q268
347 262 357T250 371Q250 372 242 383T231 412Q227 435 237 462T275 511Q283 521 299 533T331 555T350 565Q355 565 367 571T407 581Q425 585 436 588T458 591Q467 593 476 593T516 585Q539 577 551 565T565 541T562 519T544 505Q535 504 523 510T496 522T461 528Q427
528 399 521T349 489Q323 473 312 456T301 427Q303 423 306 413T318 393Q346 363 362 347T385 324T395 315T397 308Q399 306 405 298T416 282Q421 276 425 269T430 259Q431 260 436 248T445 216T450 176Q450 168 442 156T423 131T400 110Q387 100 369 89T329 68T287
54Q273 50 255 47T218 41T181 39T149 40Z" />
<glyph unicode="%" horiz-adv-x="600" d="M135 -92Q116 -90 107 -76T102 -38T132 20Q141 28 147 35T156 50Q161 56 177 76T217 122T262 172T299 215T317 236Q321 235 326 240T333 252Q336 260 342 266T355 273Q357 278 361 281T366 289Q367 293 370 295T375 302Q384
309 405 331T456 383T516 445T573 507T617 555T635 577Q640 590 655 585Q662 589 671 585Q671 585 677 577T688 559Q694 550 694 542T688 524Q684 513 678 506T657 485T612 445Q605 438 586 419T545 378T508 340T492 321Q488 319 483 314T471 299Q463 292 446 276T414
245T399 228Q397 225 394 223T385 218Q384 219 382 216T379 212Q379 208 371 197T346 172Q330 152 303 119T247 51T197 -14T170 -54Q163 -73 153 -81T135 -92ZM478 35Q494 53 504 69T523 112Q526 124 526 143T522 165Q513 169 501 168T476 154Q454 137 439 110T407
48Q397 24 402 9T428 -3T478 35ZM397 -73Q387 -73 381 -69T366 -58Q350 -42 341 -24T335 8Q337 15 337 20T336 26Q332 31 334 32T337 36Q342 36 340 45Q339 52 347 74T368 116Q373 124 383 141T407 175T430 200Q451 218 468 226T503 238Q522 243 529 243T548 229Q567
222 581 205T598 165Q600 141 594 110T556 32Q535 3 518 -13T477 -44Q460 -55 438 -63T397 -73ZM334 406Q350 424 360 440T379 483Q383 495 383 514T378 536Q370 540 358 539T333 525Q310 508 295 481T264 419Q254 395 259 380T285 368T334 406ZM253 299Q243 299
237 303T222 314Q206 330 197 348T191 379Q193 386 193 391T192 397Q188 402 190 403T193 408Q198 408 196 417Q195 423 203 445T224 487Q229 495 239 512T263 547T286 572Q307 590 324 598T359 610Q378 615 385 615T404 601Q423 594 437 577T454 537Q456 513 450
482T412 404Q391 375 374 358T333 327Q316 316 294 308T253 299Z" />
<glyph unicode="&amp;" horiz-adv-x="564" d="M664 -54Q665 -66 652 -69T617 -70T573 -60T536 -43Q517 -38 487 -6T417 72Q377 50 352 37T307 15T258 -2Q192 -8 137 11Q129 14 115 23T87 42T68 57Q63 60 62 73T60 101T62 119Q65 128 79 150T116 203T165 264T218
321Q194 356 185 389T185 461T223 550Q233 566 249 584T281 619T310 645T324 653Q328 646 332 648T340 650Q344 652 357 652T386 649T415 642Q451 638 465 634T492 616Q507 605 518 591T536 563T543 540Q543 527 523 500T468 443Q455 427 442 415T428 402Q428 398
423 391T410 381Q399 371 379 353T343 320T326 302Q325 300 334 286T357 253T385 216T411 185T427 172Q460 204 495 234T568 299Q593 325 605 334T624 341T639 331Q652 329 653 315T650 289T645 274Q632 257 610 236T563 193T516 150T478 115Q478 115 490 101T515
75Q548 41 566 28T607 6Q638 -4 650 -18T664 -54ZM179 74Q209 65 233 67T284 84T350 124L369 138L344 167Q337 175 327 190T302 223Q287 237 282 246T276 256Q273 256 263 246T241 223T223 199Q200 181 188 164T161 123Q154 107 155 99T162 86T179 74ZM280 370Q291
382 312 398T357 434T403 474T435 513T442 550Q440 554 430 559T405 570T379 574Q359 576 339 558T296 506Q271 469 264 435T280 370Z" />
<glyph unicode="&apos;" horiz-adv-x="117" d="M195 434Q181 432 174 434T159 442Q157 451 161 461T171 478Q183 498 198 525T219 568Q221 579 225 596T230 633Q230 638 231 647T237 665T247 670Q256 666 269 660T291 645T298 625Q296 601 288 576T273 530Q267
508 252 486T219 444Q220 440 213 439T195 434Z" />
<glyph unicode="(" horiz-adv-x="330" d="M285 -135Q239 -127 206 -94T159 -17Q140 25 141 92T161 230Q166 249 170 269T175 296Q178 306 188 329T211 381T236 440T258 493Q269 518 290 552T335 620T378 679T406 710Q411 715 420 723T436 732Q440 743 452 750T473
757Q496 769 518 764T548 729Q551 715 549 711T526 698Q516 694 501 687T479 671Q470 660 459 649T442 634Q424 627 424 618Q424 618 416 601T388 560Q376 541 360 513T335 471Q326 455 321 445T305 423Q305 420 302 409T290 384Q284 362 266 325Q259 309 250 283T234
233T227 199Q225 199 224 194T220 170T211 110Q210 65 213 36T228 -13T257 -54Q268 -64 279 -69T305 -75L339 -96Q333 -119 318 -128T285 -135Z" />
<glyph unicode=")" horiz-adv-x="330" d="M72 -130Q53 -125 38 -111T21 -82Q22 -79 22 -71T26 -56Q26 -56 32 -59T55 -58Q75 -59 84 -54T109 -32Q120 -17 134 0T154 31Q170 42 177 51T190 71Q190 76 193 89T208 122Q219 147 229 164T239 187Q239 187 242 194T244
211Q250 214 254 224T258 246Q258 249 267 269T277 311Q288 347 293 375T302 438T308 525Q310 570 311 592T311 627T301 651Q291 683 284 683Q281 683 279 694T280 719Q279 723 290 728T311 732Q318 732 326 727T338 717Q342 721 350 705T369 660Q375 646 378 637T382
616T382 584T379 527Q379 492 375 451T364 370T351 298Q344 272 332 236T306 162T279 96T258 55Q260 55 253 43T233 13T207 -25T185 -59Q170 -80 149 -97T107 -124T72 -130Z" />
<glyph unicode="*" horiz-adv-x="363" d="M417 397Q407 390 393 403T369 434Q366 441 362 454T351 484Q350 497 350 509T349 521Q348 522 323 501T252 435Q224 409 215 404T200 400Q193 401 189 405T184 411Q183 414 183 429T186 452Q191 458 206 474T241 510T274
544T293 562Q301 570 301 573T293 583Q289 588 287 590T288 593Q288 593 288 596T283 600Q280 605 279 610T277 617Q277 622 275 629T272 637Q268 640 268 648T272 666T277 677Q277 677 279 677T286 672Q290 672 299 661T316 638Q324 622 328 620T339 617Q339 617
346 630T356 662Q370 681 377 693T390 713Q392 719 396 724T400 729Q400 729 402 734T408 740V740V740Q415 748 422 752T432 754Q436 749 440 746T447 734L462 718L449 701Q427 668 415 641T404 613Q404 613 413 617T433 623Q444 628 451 630T461 634Q471 634 485
643Q500 648 509 643Q517 636 522 621T527 601Q526 600 509 589T465 570Q440 563 421 556T400 544Q388 544 400 527Q402 521 402 515T403 497Q408 478 410 466T414 453Q418 453 418 459Q418 463 427 463Q430 463 434 457T443 445T445 437Q445 437 445 434T445 431Q449
430 443 422T428 405T417 397Z" />
<glyph unicode="+" horiz-adv-x="446" d="M173 174Q167 174 158 174T138 179Q123 179 116 184T104 197Q93 212 104 219T153 231Q170 235 203 237T276 241T350 244T405 245Q431 245 447 241T475 226Q490 211 484 196T454 184Q449 184 436 183T408 181T381 179Q375
179 348 178T286 176T219 175T173 174ZM304 21Q289 10 282 21T270 70Q266 87 264 120T260 193T257 267T256 322Q256 348 260 364T274 392Q289 407 305 401T317 371Q318 366 318 353T320 325T322 298Q322 292 323 265T325 203T326 136T327 90Q327 84 327 75T322
55Q322 40 317 33T304 21Z" />
<glyph unicode="," horiz-adv-x="198" d="M54 -84Q43 -84 38 -80T28 -69Q28 -62 31 -57T43 -45Q53 -35 64 -21T84 9T99 33Q103 44 106 59T115 92Q115 100 115 106T120 117Q127 124 136 127T155 121T169 78Q173 56 169 38T153 -6Q151 -13 139 -28T115 -57T100 -70Q96
-70 93 -72T85 -79Q81 -83 73 -83T54 -84Z" />
<glyph unicode="-" horiz-adv-x="326" d="M173 174Q167 174 158 174T138 179Q123 179 116 184T104 197Q93 212 104 219T153 231Q187 239 218 242T290 245Q316 245 330 241T355 226Q370 211 364 196T334 184Q327 183 306 182T266 179Q255 178 229 176T173 174Z" />
<glyph unicode="." horiz-adv-x="198" d="M159 52Q138 45 125 45T95 57Q76 77 82 97T117 136Q136 148 145 148T173 141Q206 121 202 96T159 52Z" />
<glyph unicode="/" horiz-adv-x="330" d="M75 -108Q45 -109 35 -77T51 17Q57 28 62 39T69 57Q72 63 83 85T111 139T146 204T180 267T207 317T220 339Q225 338 229 345T234 359Q236 367 241 376T251 387Q252 392 255 398T260 408Q261 412 264 415T267 423Q275 433
290 457T325 514T365 582T402 648T431 700T442 725Q444 740 462 737Q468 742 478 740Q478 740 486 732T501 713Q508 704 508 695T504 675Q502 662 498 653T481 626T442 573Q436 564 426 548T404 514T386 483T379 468Q378 464 373 457T362 437Q356 430 347 416T327
387T309 360T301 346Q300 343 299 339T292 332Q289 333 287 328T285 322Q286 314 260 272Q250 252 232 216T192 138T150 55T117 -15T101 -56Q97 -79 90 -92T75 -108Z" />
<glyph unicode="0" horiz-adv-x="450" d="M289 9Q282 9 265 14T229 28T200 45Q170 72 155 105T137 175T138 244Q149 308 184 371T269 476Q295 499 319 514T373 536Q384 539 402 539T427 540Q447 540 470 532T510 512T527 490Q527 483 526 477T517 475H507L517
446Q521 438 524 425T527 400Q527 390 524 371T517 329T507 288T499 260Q496 254 496 249T495 239Q491 231 482 211T469 183Q465 179 463 176T464 169Q464 167 459 157T449 137T440 128Q440 128 438 128T435 123Q435 119 422 103T390 68Q380 58 360 44T319 20T289
9ZM286 94Q297 94 307 97T324 108Q342 120 361 142T391 191Q402 206 408 222T429 279Q437 290 440 306T443 333Q443 344 443 363T448 395Q448 421 447 427T439 441Q435 444 429 447T415 450Q408 450 394 445T372 435Q365 431 357 434T348 442Q348 456 333 442T296
401Q278 383 266 365T253 342Q253 338 250 332T244 318Q239 311 232 295T219 264T210 240Q210 236 210 219T210 186Q210 169 211 160T215 144T223 128Q227 121 235 112T247 98Q258 88 262 89T286 94Z" />
<glyph unicode="1" horiz-adv-x="450" d="M349 -15Q346 -17 337 -16T317 -11T300 0Q296 4 293 9T291 29T298 74Q302 94 308 115T318 152T323 167Q328 169 337 197T359 265Q363 279 373 312T393 376Q402 405 409 423T417 442Q417 442 404 435T371 415T330 386Q313
376 291 359T251 330Q224 309 216 304T198 304Q185 315 176 333T173 362Q175 363 186 370T211 388T238 407T255 419Q258 419 266 426T283 439Q288 445 318 466T383 513Q420 536 448 550T480 563Q483 563 492 557T511 543T522 529Q528 522 516 497Q512 488 503 465T484
411T464 351T448 300Q440 269 434 252T422 220T409 177Q402 161 395 137T381 89T372 50Q364 28 359 9T349 -15Z" />
<glyph unicode="2" horiz-adv-x="450" d="M161 13Q157 15 148 23T131 41T119 57Q116 62 119 75T127 88Q130 86 136 95T147 114T153 127Q154 131 158 133T167 139Q172 147 180 155T194 170Q202 180 223 200T264 241Q285 264 301 281T318 306Q318 306 321 309T330
316Q335 319 343 326T358 339Q360 347 368 359T386 381Q394 393 401 407T410 429Q413 440 409 442T383 452Q359 460 336 456T277 427Q263 424 252 419T232 415Q228 417 223 424T212 437L202 473L233 490Q274 516 310 528T374 531Q385 531 394 529T403 526Q411 527
425 518T454 495T474 467Q490 443 486 412T456 343Q451 337 434 318T396 276T357 234T334 211Q327 208 311 192T276 155T245 121T234 106Q233 102 242 105T260 111Q275 116 297 120T341 128T381 133T401 131Q403 126 404 127T406 129Q408 136 431 133T474 124Q485
121 491 117T498 109Q498 109 500 105T509 93Q525 80 511 69T456 64Q430 64 413 61Q409 59 396 59T371 58Q353 60 335 57T292 45Q283 42 264 36T223 24T184 15T161 13Z" />
<glyph unicode="3" horiz-adv-x="450" d="M244 6Q219 6 196 14T158 34T145 58Q146 74 154 80T185 84Q219 77 255 80T323 96T374 128Q401 154 401 175T372 215Q359 224 339 232T298 244T264 248Q255 247 245 250T221 261Q215 268 210 281T203 299Q202 304 209 310T240
330T310 369Q352 392 375 405T411 426T434 443Q448 460 447 467T420 479Q395 481 378 481T360 476Q360 476 360 476T356 476Q351 478 334 475T302 468T285 461Q284 459 272 455T249 447T234 444Q229 446 223 456T212 479T210 497Q212 501 223 508T250 525T277 539Q291
543 318 546T372 551T411 552Q457 547 484 528T518 472Q521 458 519 445T507 419T478 388Q453 372 439 361T398 337Q391 332 377 326T351 314T339 306Q339 306 346 304T364 299T379 291Q408 281 432 258T466 220Q480 189 473 155T441 91T382 40Q354 24 315 16T244
6Z" />
<glyph unicode="4" horiz-adv-x="450" d="M326 -6Q321 -3 311 10T304 55Q306 84 314 117T331 175Q337 193 341 206T346 222Q346 222 335 220T309 214Q260 203 234 204T190 235Q184 241 177 256T167 287T174 314Q183 335 189 347T198 365T202 376Q202 378 204 382T209
390Q216 403 232 427T267 477T302 524T325 552Q332 555 345 560T364 563Q370 562 376 552T386 531T389 518Q389 518 388 517T384 511Q381 505 373 494T351 468Q339 452 323 429T292 380T265 334T250 301Q246 287 248 282T258 276Q268 276 281 278T313 285Q327 287
337 290T355 296Q363 298 369 300T380 307Q388 315 394 330T410 369Q418 388 427 407T446 442Q471 492 484 511T500 531Q504 531 513 525T531 510Q539 503 543 497T544 485Q543 473 539 462T525 436T503 397Q489 370 476 340T449 280T425 223T406 173Q387 121 379
95T371 57T375 38Q376 23 368 12T347 -5T326 -6Z" />
<glyph unicode="5" horiz-adv-x="439" d="M170 19Q152 32 152 41Q148 47 143 47Q140 46 138 55T134 77T133 93Q137 101 147 104T167 106T179 96Q181 88 194 83T230 79Q258 80 283 89T331 116T369 154Q376 168 382 191T390 232T387 250Q387 250 386 257T381 272Q376
287 358 302T323 325Q316 327 295 326T259 323Q243 322 238 323T232 325Q227 326 216 334T196 351T187 366Q189 373 197 389T219 426T245 464T271 495Q301 528 342 544T424 559Q453 558 467 553T493 531Q501 517 499 503T490 483T470 482Q456 491 432 489T381 479Q360
471 344 462T322 441Q318 438 317 435T311 433Q311 433 308 430T305 422Q300 416 299 414T293 415Q293 415 293 412T292 405Q291 398 295 395T319 390Q343 386 356 383T394 364Q422 348 436 318T455 252T454 182Q451 160 448 148T431 115Q408 83 373 59T300 20T227
5T170 19Z" />
<glyph unicode="6" horiz-adv-x="464" d="M282 21Q249 12 222 14T174 37Q160 48 148 64T133 100Q128 115 127 124T128 146T136 186Q144 222 150 242T174 288Q182 309 192 330T208 358Q213 365 223 379T244 405Q254 418 262 429T271 441Q276 444 280 447T290 457Q298
466 315 479T353 505T396 527T433 538Q465 549 463 537Q463 537 471 529T487 519Q491 518 493 513T499 502Q501 494 494 483T472 459Q458 449 453 448T443 451Q444 455 439 456T434 458Q428 460 410 453T373 432T338 403Q329 395 322 387T313 375Q300 362 290 350T280
337Q283 331 294 334T307 341Q307 345 329 351T375 360Q384 364 399 361T425 356Q447 352 455 348T475 329Q495 310 502 289T509 242Q509 226 506 214T492 189Q484 176 471 157T446 123T424 102Q420 100 417 98T413 95Q412 89 398 79T362 56T320 35T282 21ZM220
89Q237 86 245 86T277 95Q285 97 291 99T301 100Q301 100 314 109T344 128Q393 159 418 195T438 257Q439 264 436 271T433 282Q431 282 424 284T408 287Q397 290 387 290T358 286T296 271Q289 270 281 266T264 260Q262 257 254 253T240 247Q229 246 222 230T204
168Q199 136 198 126T201 107Q202 97 207 94T220 89Z" />
<glyph unicode="7" horiz-adv-x="447" d="M232 -23Q220 -21 206 -8T186 20Q182 39 202 86T256 198Q278 234 278 240T258 246Q249 248 235 251T218 258Q202 266 200 275T206 286Q214 290 211 297T210 308Q214 309 217 308T228 306Q242 306 253 305T275 304Q280
304 287 304T301 303Q315 301 320 305T339 328Q347 342 361 361T388 405Q428 461 432 480T414 497Q398 495 379 490T321 470Q290 457 275 455T248 458Q242 459 239 468T235 488T235 507Q237 518 276 531T366 557Q389 561 415 562T463 560T488 549Q488 549 490 547T494
548Q498 547 500 541T508 524Q518 507 520 499T520 476Q517 465 510 454T499 440Q494 436 492 431T489 426Q488 422 483 419T473 409Q472 405 469 400T464 392Q463 391 456 381T440 356T422 329T411 312Q397 299 397 293T410 281Q427 274 438 265T453 241Q454 218
446 215Q441 208 430 207T415 209Q412 215 402 220T381 229T368 232Q364 230 360 225T351 213Q344 203 333 182T311 140T294 110Q293 105 289 100T282 88Q278 81 275 68T272 44T275 32Q283 34 286 31T292 19Q297 12 286 1T259 -17T232 -23Z" />
<glyph unicode="8" horiz-adv-x="450" d="M180 -42Q173 -41 163 -35T142 -20T126 -6Q119 11 116 20T116 50Q116 62 118 78T128 104Q135 124 150 151T184 205T219 254T244 287Q255 301 255 310T234 347Q230 358 225 363T224 369Q224 369 222 372T216 383Q201 397
201 426T216 483Q232 519 256 542T311 570Q322 569 349 564T405 553T451 539Q463 534 481 522T514 497T530 479Q530 476 533 473T538 464Q544 453 544 436T542 401T533 375Q508 347 498 343Q493 339 487 333T472 325Q467 318 463 313T454 308Q450 311 446 311T442
308Q442 306 429 299T401 287T383 284Q383 284 380 284T371 280Q358 282 386 248Q409 205 420 166T417 105Q398 62 376 35T341 8Q341 8 337 5T327 -1Q325 -8 319 -10T307 -12Q298 -8 276 -22Q263 -31 243 -36T205 -43T180 -42ZM201 26Q211 25 227 31T263 47T298
68Q332 95 344 121T346 175Q340 187 333 201T321 223Q315 232 311 236T301 243Q301 243 296 237T285 220Q274 206 271 201T263 188Q256 181 250 175T241 166Q241 163 235 149T221 120Q199 82 194 55T201 26ZM356 353Q377 372 390 375T409 367Q411 363 430 373T465
401Q471 412 470 414T466 432Q467 442 466 448T456 460T426 474Q364 496 329 489T280 442Q274 423 274 410T282 380Q291 376 294 370T297 363Q297 354 305 354Q307 349 319 343T356 353Z" />
<glyph unicode="9" horiz-adv-x="442" d="M312 -37Q307 -36 299 -31T284 -20T277 -11Q278 -6 273 -6Q273 -6 271 0T270 14Q270 17 271 29T272 48Q274 68 282 101T301 170T322 236Q336 272 335 280T309 286Q278 281 253 295T212 336T199 392Q200 407 205 419T224
454Q245 485 273 512T331 557T388 581Q404 584 426 583T460 577Q475 571 491 552T519 513T527 480Q520 447 511 430T489 399Q473 385 452 348T409 264T371 170Q357 128 354 94T357 59Q361 59 369 56T382 53Q385 49 385 44T380 28Q377 21 368 10T348 -12T326 -30T312
-37ZM278 364Q293 348 315 351T363 375T409 428Q421 442 426 452T435 465Q448 479 452 487T449 503Q442 514 433 515T399 507Q383 504 373 497T341 476Q337 472 333 472T325 472Q325 472 323 472T321 467Q326 458 309 444Q283 416 276 396T278 364Z" />
<glyph unicode=":" horiz-adv-x="198" d="M232 262Q211 255 198 255T168 268Q148 287 155 307T190 346Q209 358 218 358T246 351Q278 331 275 306T232 262ZM162 52Q141 45 128 45T98 58Q78 77 85 97T120 136Q139 148 148 148T176 141Q208 121 205 96T162 52Z" />
<glyph unicode=";" horiz-adv-x="198" d="M58 -84Q47 -84 41 -80T31 -69Q31 -62 35 -57T46 -45Q57 -35 67 -21T88 9T103 33Q107 44 110 59T118 92Q118 100 118 106T123 117Q131 124 140 127T159 121T173 78Q177 56 173 38T157 -6Q155 -13 143 -28T118 -57T103
-70Q99 -70 96 -72T89 -79Q85 -83 77 -83T58 -84ZM232 262Q211 255 198 255T168 268Q148 287 155 307T190 346Q209 358 218 358T246 351Q278 331 275 306T232 262Z" />
<glyph unicode="&lt;" horiz-adv-x="446" d="M355 47Q321 56 300 62T253 88Q218 105 197 119T155 160L121 201L111 246Q119 248 129 253T140 260Q152 267 165 276T200 299T261 334Q306 357 333 374T372 400Q378 407 386 410T399 414Q405 415 415 408T429 397Q439
389 445 386T453 375Q453 375 450 367T440 353Q426 343 406 332T355 306T280 263Q253 247 237 239T214 225T210 205Q224 185 265 163T383 118Q416 109 435 98T460 77T460 55Q455 48 438 44T399 39T355 47Z" />
<glyph unicode="=" horiz-adv-x="446" d="M241 270Q235 270 226 270T199 275Q184 275 177 278T165 289Q151 304 162 316T221 329Q260 337 304 340T394 343Q425 343 437 339T461 323Q479 308 474 292T445 280Q435 279 411 278T363 275Q356 275 336 274T290 271T241
270ZM186 127Q180 127 171 127T145 132Q129 132 122 135T110 146Q96 161 107 173T166 186Q205 194 249 197T339 200Q370 200 382 196T407 180Q424 165 419 149T390 137Q380 136 353 135T303 132Q296 132 277 131T234 128T186 127Z" />
<glyph unicode="&gt;" horiz-adv-x="446" d="M194 28Q188 26 179 34T165 45Q155 54 149 56T141 67Q141 67 144 75T154 90Q169 100 190 110T242 135T317 176Q344 192 360 199T382 212T388 232Q374 252 333 275T217 323Q184 334 166 344T141 366T142 388Q147 394
163 398T202 402T247 393Q280 383 301 377T348 351Q382 333 403 318T444 276L477 234L486 188Q478 187 468 182T456 175Q444 169 431 161T396 139T334 105Q289 83 261 66T222 40Q215 34 207 31T194 28Z" />
<glyph unicode="?" horiz-adv-x="374" d="M248 186Q232 188 225 199T218 223Q218 225 217 233T218 250Q218 256 224 269T237 300Q248 320 271 345T310 382Q319 389 323 391T327 394Q327 398 341 409T365 425Q365 425 378 434T398 450Q421 473 432 492T449 537T462
599Q463 634 460 644T445 663Q421 670 396 663T348 635T310 581Q304 564 304 558T306 542Q306 534 308 525T311 510Q307 509 296 507T271 504T248 514Q248 514 242 522T233 535Q227 543 227 550T228 573Q235 593 247 617T278 664T322 700Q343 709 360 718T377 728Q377
728 384 728T410 731Q416 730 423 731T431 727Q434 727 443 727T460 727Q472 724 487 716T517 697T538 679Q545 657 544 625T534 556T511 488T476 433Q470 427 454 413T421 383T392 354Q358 335 332 297T293 223Q282 199 272 193T248 186ZM223 7Q203 0 190 0T160
13Q140 32 147 52T181 91Q200 103 209 103T238 96Q270 76 267 52T223 7Z" />
<glyph unicode="@" horiz-adv-x="643" d="M307 -135Q273 -135 235 -120T165 -80Q148 -64 131 -43T102 -1Q94 10 89 28T82 66Q81 83 84 108T93 157T106 195Q106 198 107 201T110 211Q110 217 117 231T133 258Q167 303 191 335T242 393T308 447Q327 462 355 475T412
499T464 513Q468 514 476 514T507 512Q538 509 568 497T620 464Q660 433 679 397T704 334Q708 320 708 294T705 243T696 204Q685 180 667 154T629 105T590 65T561 46Q546 46 522 53T485 70Q487 70 466 82Q466 82 459 75T441 58Q427 45 408 35T371 19T345 16Q326
21 315 25T295 37T271 65Q267 75 263 90T258 112Q258 122 261 134T268 161Q274 188 284 208T312 252Q328 275 353 296T407 329Q419 335 443 335Q452 335 461 333T479 325Q486 324 496 315T517 293T531 270Q534 255 534 248T531 224Q530 220 529 214T526 202Q525
194 522 182T517 165Q514 156 512 152T513 139Q512 135 518 131T532 125T544 122Q549 122 558 129T577 148Q593 165 603 176T620 198T633 229Q634 235 634 244T635 263Q635 313 614 356T539 421Q528 426 514 427T484 429Q462 429 440 426T397 413Q384 409 366 397T327
368T290 334T260 302Q217 251 193 199T162 96Q158 66 162 51T170 30Q181 8 198 -7T237 -37Q260 -46 290 -50T359 -52Q367 -54 369 -56T371 -68Q371 -69 372 -77T379 -96Q379 -105 379 -112T370 -124Q364 -126 353 -129T329 -133T307 -135ZM375 94Q384 100 395 109T415
128T427 145Q427 146 434 159Q441 171 447 186T457 216Q459 218 460 222T464 235Q464 240 463 244T455 252H456Q445 254 430 255T405 252Q391 247 378 230T353 191T336 148T330 111Q336 99 348 94T375 94Z" />
<glyph unicode="A" horiz-adv-x="508" d="M64 -33Q46 -23 45 -11T58 31T105 124Q129 169 138 194T150 231T153 245Q151 254 155 259T168 269Q173 274 188 287T214 318Q223 339 235 361T266 416T317 504Q337 539 363 580T417 658Q428 672 439 680T459 688Q478 688
497 678T533 652T555 621Q560 613 559 587T555 524T548 445Q545 404 539 348T528 231T519 114T519 15Q520 6 519 -2T518 -15Q512 -21 494 -21T459 -14T440 1Q437 4 437 7T437 28T439 90L444 246L431 245Q422 245 398 243T346 238T295 231T262 224Q253 224 241 212T217
181Q213 167 203 152T192 131Q185 126 181 119T177 112Q177 106 168 83T145 31T117 -19L92 -55L64 -33ZM292 304Q292 304 303 306T329 310T356 313Q385 320 402 323T428 326T443 324Q447 319 450 318T454 317Q455 319 457 338T464 387T472 447T478 506T482 549Q483
568 482 583T481 599Q475 599 458 577T418 520T374 443Q364 424 356 412T342 399Q340 397 331 383T312 352T296 320T292 304Z" />
<glyph unicode="B" horiz-adv-x="522" d="M204 -67Q161 -39 151 -14T168 29Q174 33 190 28T215 13Q235 -5 262 -9T326 -4Q368 9 393 30T447 85Q468 112 476 139T484 190T473 225Q448 260 409 273T309 271Q302 270 288 267T263 262T251 259Q244 257 240 256T231
245T214 204T181 113Q160 52 146 27T122 3T97 25Q89 39 82 55T85 89Q90 98 93 105T101 132Q106 147 120 184T155 272T197 377T239 479T274 560Q288 591 291 605T289 620Q289 625 286 629T284 638Q284 642 300 649T335 662T363 666Q368 666 375 666T382 671Q385
671 401 673T436 673Q503 667 544 635T584 536Q583 519 569 491T534 436T491 388Q478 377 464 366T439 347T428 339Q428 339 436 336T453 330Q499 313 526 287T565 215Q569 200 566 178T556 135T543 98Q536 91 532 84T528 76Q528 74 520 61T501 31T480 3Q470 -5
454 -18T417 -44T378 -64Q350 -76 316 -80T252 -82T204 -67ZM268 338Q268 338 285 341T323 349T354 358Q359 361 368 366T388 381Q402 394 419 413T454 454T483 498Q506 534 508 550T497 580Q488 591 470 596T432 601T395 595Q382 591 375 586T368 569Q368 560
363 551T352 537Q351 530 346 524T341 518Q341 514 328 491T301 429Q283 386 276 365T268 338Z" />
<glyph unicode="C" horiz-adv-x="475" d="M219 -63Q204 -57 186 -48T151 -22T124 18Q114 47 111 75T108 140Q108 192 115 230T139 309Q141 312 146 326T159 358T171 384Q179 401 195 429T231 485Q260 528 279 554T317 599T357 635T413 675Q435 691 467 694T528
683T573 635Q584 614 583 583T572 518T545 453T507 403Q494 391 477 397T445 417Q436 434 436 437T439 441Q445 448 455 465T475 501T489 533Q497 575 500 590T494 614Q490 618 483 617T458 607Q435 597 402 565T337 491Q297 438 270 397T229 313Q227 309 223 298T218
287Q219 283 215 268T206 241Q195 195 193 150T198 72T221 23Q234 14 255 17T303 31T360 55Q384 65 404 77T434 98Q442 104 454 110T476 117Q490 122 495 113T500 88Q500 74 482 55T439 22Q431 14 418 7T391 -6Q370 -22 339 -37T277 -60T219 -63Z" />
<glyph unicode="D" horiz-adv-x="584" d="M216 -102Q197 -105 174 -103T120 -93Q104 -88 98 -81T76 -55Q65 -40 62 -23T65 7T86 21Q93 22 102 17T123 3Q142 -10 164 -20T211 -27Q225 -24 245 -22T283 -15T313 -2Q366 34 394 55T422 76Q424 80 429 82T443 88Q449
95 462 108T488 134T503 149Q505 158 507 163T509 175Q517 183 530 208T558 265T578 323Q592 383 587 429T562 510T510 573Q499 582 480 592T441 612T405 626T386 630Q382 629 370 599T342 523T306 424T270 324Q265 305 258 284T246 248T240 227Q229 210 219 178T201
80Q192 46 188 25T180 5Q180 5 179 -1T175 -11Q175 -17 165 -18T140 -13T114 8Q111 19 110 37T117 84Q122 103 130 132T149 192T168 249T182 289Q189 306 202 353Q210 379 218 405T235 451T246 478Q251 491 259 521T283 589L290 622L279 627Q267 623 261 624T252
627Q246 625 236 630T219 644T209 659Q207 663 207 669T206 676Q207 682 222 688T261 699T314 707T368 708Q394 706 427 697T487 677Q519 665 555 636T622 566T662 482Q665 470 668 448T671 406T667 379Q665 375 665 370T668 362Q667 359 661 340T650 306Q648 280
637 248T613 188T590 142Q586 142 583 141T583 138Q583 133 572 119Q568 116 560 105T546 89Q545 82 540 78T531 73Q531 73 530 73T528 69Q520 57 502 39T460 2T414 -33T370 -58Q360 -65 349 -69T328 -79Q323 -83 302 -87T256 -95T216 -102Z" />
<glyph unicode="E" horiz-adv-x="532" d="M236 -34Q205 -32 177 -13T122 25Q105 42 96 61T81 113Q77 132 81 162T94 223T111 272Q123 300 141 332T178 394T208 442Q215 449 215 449T214 450Q214 455 224 475T243 512Q258 528 260 538T257 554Q255 558 265 570T293
597T335 626Q359 645 381 646T408 637Q408 634 419 635T446 640T474 646Q479 652 497 655T541 662Q554 661 569 661T595 663T606 664Q613 666 625 658T645 631Q652 613 636 602T578 585Q548 581 530 579T491 573T436 561Q411 556 395 552T366 537T338 504Q331 499
320 478T298 436Q270 397 254 375T242 348Q242 348 255 345T272 342Q282 347 296 349T320 353Q382 369 413 377T459 388T484 393Q498 404 512 394T533 367Q540 350 534 340T505 323T440 305T333 277Q278 261 243 258T209 275Q202 279 194 267T178 234T165 189T158
144T161 112Q169 89 185 74T235 48Q255 47 274 45T317 53Q376 63 402 74T434 89Q442 93 444 96T452 99Q449 94 454 98T470 113Q488 128 508 133T542 139T557 133Q563 123 553 103T519 60T462 18Q409 -10 347 -21T236 -34Z" />
<glyph unicode="F" horiz-adv-x="462" d="M517 306Q512 301 493 296T430 286Q417 285 393 284T340 282T289 281T257 284Q257 284 253 279T248 266Q241 254 231 230T209 178T187 121T170 71T163 42Q154 18 152 1T145 -19Q143 -30 129 -30T106 -20Q87 -10 82 4T83
41Q86 54 93 79T110 136T130 196T151 245Q162 264 165 279T173 308Q172 319 173 322T181 334Q186 339 193 349T211 382Q214 392 220 409T233 445T244 477T249 491Q251 495 255 506T261 525Q265 539 267 548T266 557Q258 555 234 554Q222 552 217 552T207 550Q197
549 189 552T181 564Q183 580 192 594T217 610Q224 612 232 613T256 619Q275 623 288 623T307 621Q312 624 315 627T320 635Q323 649 333 656T355 663T375 658T382 637Q383 634 386 632T405 632T454 642Q472 644 499 646T543 643Q560 646 573 646T592 649Q613 645
622 644T638 637Q642 633 641 630T640 626Q636 628 639 626T647 621Q654 618 655 610T655 595T653 584Q652 575 643 574T598 573Q555 579 517 578T424 568Q402 567 387 563T371 558Q367 558 357 545T338 505Q334 498 324 475T304 426T285 379T275 356Q289 352 319
352T386 354T455 360Q470 363 486 365T508 366Q518 364 523 352T528 326T517 306Z" />
<glyph unicode="G" horiz-adv-x="492" d="M163 -41Q136 -22 122 13T108 81Q107 143 118 208T149 331Q162 367 177 404T208 476T238 532Q269 584 302 616T352 659Q376 671 413 678T488 678Q514 671 538 659T578 632Q588 621 594 611T600 589Q600 576 589 563T563
545T539 551Q526 571 514 580T487 596Q476 603 458 603T418 597T380 576Q372 569 359 556T332 526T308 490Q281 443 261 396T225 292Q219 272 212 241T198 179T190 125Q185 86 189 60T212 25T267 27Q292 32 318 47T370 86T415 140Q433 173 445 202T457 249T440
266Q400 266 376 268T340 284Q329 290 329 306T345 334Q360 341 389 343T449 342T500 327Q520 317 528 298T536 256T533 212Q525 181 510 149T469 83Q454 62 428 39T373 -4T322 -33Q282 -51 239 -58T163 -41Z" />
<glyph unicode="H" horiz-adv-x="570" d="M145 -88Q145 -88 138 -86T121 -81T106 -78Q90 -74 83 -61T80 -31Q84 -27 86 -14T88 7Q92 15 93 18T98 38Q101 55 108 85T125 151T144 218T160 272T171 297Q171 297 171 300T171 308Q171 308 172 317T182 339Q186 350
189 363T192 380Q196 385 203 404T218 443Q224 459 231 477T244 508T250 521Q250 525 250 525T250 526Q254 530 269 566T312 661Q316 669 323 684T330 703Q342 716 354 713T378 699T394 677L404 661L368 589Q351 561 340 538T329 511Q329 511 324 498T313 465T300
427Q289 396 279 376T269 351Q269 353 290 354T343 355T408 355T468 356T505 359L557 364L587 458Q595 486 608 526T631 594Q647 640 662 656T689 672Q692 672 699 668T715 658T725 646Q737 635 737 621T720 584Q704 557 694 526T675 474Q675 462 672 455T665 443Q663
441 657 428T646 402T641 386Q641 379 638 369T631 355Q629 349 622 325T606 269T587 206T569 155Q569 148 564 138T559 119Q555 107 549 89T543 66Q538 43 533 15T524 -34T520 -58Q501 -62 490 -54T467 -42Q448 -31 445 -16T452 22Q457 30 464 61T480 124Q486
139 493 163T507 210T519 251T526 270Q526 274 526 277T526 280Q524 282 504 283T455 285T392 283T329 277Q318 277 300 277T273 277Q262 277 255 277T247 277Q246 274 240 257T227 215T211 165T198 118T190 89Q186 71 180 44T166 -11T153 -61T145 -88Z" />
<glyph unicode="I" horiz-adv-x="406" d="M185 -38Q178 -27 159 -24T104 -23Q90 -25 76 -21T53 -10T46 7Q47 19 71 30T139 43L185 44L195 64Q199 75 202 90T213 129Q217 143 225 167T242 220T258 270T267 302Q271 311 278 332T291 376T300 409Q326 488 334 520T338
553Q334 553 319 552T285 550T253 546T236 542Q231 535 219 543T204 561Q203 570 204 577T210 587Q217 593 238 600T286 614T336 623Q353 625 370 630T397 644Q406 647 414 649T432 650Q440 645 459 645T501 646Q557 651 578 645T607 624Q612 605 607 593T584 582Q575
580 557 579T512 576Q444 570 439 562Q435 558 433 554T426 545Q427 541 422 521T408 479Q404 466 396 442T380 393T364 347T354 319Q350 310 348 300T344 284Q330 235 320 202T303 144T289 96T275 45Q275 45 291 46T334 50Q381 55 399 56T421 54T429 41Q449 14
429 -1T353 -16Q301 -18 276 -19T242 -24T233 -34Q233 -47 217 -49T185 -38Z" />
<glyph unicode="J" horiz-adv-x="312" d="M91 -196Q70 -208 45 -207T-3 -195T-43 -167Q-50 -159 -50 -142T-45 -112Q-40 -94 -32 -94Q-21 -94 -7 -113Q21 -138 48 -127T107 -68Q113 -53 126 -25T153 35T180 94T196 134Q196 134 196 137T201 145Q202 149 206 161T214
189Q218 200 225 222T241 268T256 308Q261 329 268 353T281 391Q285 399 293 423T311 477Q323 516 333 546T348 596T351 618Q351 618 334 615T295 608Q278 601 261 601T246 610Q246 614 246 616T246 619Q243 617 238 622T229 635T225 649Q225 657 247 666T301 679Q321
682 346 684T385 689Q389 692 401 688T428 678T447 665Q453 657 454 648T452 623T438 578T408 497Q386 435 369 385T338 301Q335 290 328 269T313 227T302 191Q294 172 287 150T276 115Q276 107 272 97T263 82Q263 82 256 65T239 23Q231 3 222 -21T204 -59Q199
-71 192 -81T185 -96Q185 -96 185 -99T180 -102Q180 -102 177 -104T174 -112Q172 -118 162 -130T139 -156T112 -181T91 -196Z" />
<glyph unicode="K" horiz-adv-x="505" d="M104 -44Q91 -36 84 -26T82 5Q81 18 83 29T87 44Q92 44 93 50T94 59Q94 67 100 86T112 126Q120 144 127 162T135 185Q135 193 139 201T148 218Q153 230 155 244T158 267Q164 280 171 295T182 326Q188 343 199 376T224
443Q233 462 242 483T258 518T268 533Q268 533 268 536T268 544Q268 549 276 563T291 594Q301 609 305 622T309 636Q309 636 312 642T320 653Q342 665 358 665T382 642Q390 622 389 613T381 592Q373 574 360 547T333 488T306 428T287 379T279 354L237 252Q234 246
227 225T210 172T189 104T167 34Q156 1 149 -18T137 -46T124 -55Q120 -55 115 -52T104 -44ZM458 -45Q449 -46 434 -37T401 -13T368 16T343 42Q327 65 303 103T266 185Q259 217 252 236T244 269L245 334L310 332Q315 278 326 243T352 180Q364 153 378 128T411 86Q434
61 452 49T479 37Q493 31 502 24T516 10T521 -2Q522 -5 521 -14T516 -32T508 -44Q502 -51 492 -53T458 -45ZM228 333L301 387Q304 390 320 404T378 451L507 556Q532 569 555 586T592 613Q609 625 625 636T646 647Q654 651 664 641T681 618T687 596Q689 586 684
579T656 559Q633 549 619 540T602 524Q602 524 582 509T533 473Q493 447 467 426T432 392Q428 392 425 389T417 387Q417 387 409 382T397 371Q395 366 389 358T372 350Q366 346 348 334T311 306T277 279T262 265L228 333Z" />
<glyph unicode="L" horiz-adv-x="426" d="M202 -53Q162 -43 135 -12T95 59Q94 72 94 94T95 135T99 158Q102 160 102 170Q101 174 103 183T109 203Q114 215 114 222T113 234Q113 234 116 240T123 251Q129 257 129 263T128 269Q127 273 130 280T136 291Q138 293
141 299T145 306Q145 309 149 322T160 350T171 379T180 396V398Q184 408 191 419Q192 424 196 435T205 458Q216 482 232 512T268 573T304 628T335 665Q352 684 367 690T397 681Q404 674 408 662T412 639T405 628Q398 624 386 606T357 562T327 511T300 463Q287 434
276 413T265 391Q264 388 263 386T261 382Q246 351 236 326T216 272Q210 265 209 258T208 251Q206 252 205 247T201 234Q196 230 195 222T194 205Q187 187 181 162T173 113T171 76Q173 59 183 47T210 27Q221 22 229 19T245 16Q253 15 265 16T300 22H299Q312 24
326 27T354 34Q366 36 377 38T394 43Q416 49 428 52T446 52Q451 48 455 39T457 21Q455 16 439 3T400 -24T359 -44Q339 -53 308 -57T247 -60T202 -53Z" />
<glyph unicode="M" horiz-adv-x="726" d="M670 -48Q667 -53 654 -51T632 -36Q624 -21 624 -4T624 46Q630 81 643 138T672 265T706 411Q716 447 722 474T732 517T735 532Q734 532 731 529T726 522T723 516Q723 516 719 508T703 483Q694 471 685 451T659 404Q643
374 624 337T590 276Q582 264 576 253T567 237Q563 226 554 211T532 180Q526 171 518 160T504 140T498 131Q497 126 487 113T461 83T431 53Q396 22 374 16T324 33Q311 49 304 66T297 113T306 193Q313 227 320 263T336 333T350 391T360 425Q363 448 361 449T350
438Q344 428 326 396T284 319T239 227Q198 151 171 101T126 20T100 -25T87 -46T81 -54Q68 -53 58 -42T39 -16Q37 -7 37 3T40 26T54 60Q67 86 78 104T94 127Q99 134 102 142T107 158Q112 164 122 183T144 224Q152 237 165 259T194 309T221 359Q266 438 294 488T334
551Q341 556 346 569T354 589Q364 614 376 632T399 650Q408 650 419 646T441 630Q451 617 459 599T461 545Q460 530 457 509T450 469T443 436Q433 393 423 350T405 268T392 198T385 147T387 122Q392 120 397 123T408 137Q415 146 422 157T439 182Q452 201 469 228T512
296T572 397T656 543Q679 578 700 612T737 663Q751 678 771 673T807 647T826 598Q827 584 821 550T805 474T781 389Q778 372 771 345T756 290T741 238Q734 204 729 180T725 135Q716 119 713 89T710 27Q706 -12 697 -28T683 -43Q674 -40 670 -48Z" />
<glyph unicode="N" horiz-adv-x="612" d="M106 -77Q89 -66 84 -54T79 -26T86 9Q94 41 103 62T122 107T139 168Q155 205 167 238T187 292T194 313Q195 317 203 334T222 375T245 425Q262 473 275 506T303 567T335 622Q347 643 367 647T405 645T430 617Q435 607 438
594T445 554T449 480Q451 423 451 373T454 281T466 205Q469 187 473 162T481 111T490 70T499 53Q504 53 511 63T530 103T560 192T602 350Q607 367 615 405T628 482Q635 507 642 537T654 590T660 616Q660 623 660 628T660 638Q665 638 669 651T673 675Q673 692 677
702T687 718Q695 734 710 734T740 725T757 703Q759 692 752 654T729 550Q729 539 723 514T711 461T701 413Q697 387 692 365T682 343Q656 230 628 151T577 21Q553 -34 519 -48T452 -21Q433 5 421 30T401 89T386 175Q377 217 374 258T370 342T371 433Q372 487 367
499T353 491T328 430Q321 410 311 384T291 333T273 289T264 265Q258 253 250 234T237 192Q201 98 184 35T158 -51Q148 -79 139 -86T106 -77Z" />
<glyph unicode="O" horiz-adv-x="502" d="M183 -30Q146 -3 129 18T109 61Q107 79 109 110T116 171T123 216Q128 221 128 229T127 238Q126 243 134 264T149 320Q169 380 187 420T224 490T260 543Q301 585 333 609T397 647Q417 659 434 666T462 668Q518 656 553
620T602 514Q609 470 610 435T605 365T580 289T528 193Q489 116 442 63T348 -19T257 -51T183 -30ZM258 24Q281 27 297 34T332 60T380 112Q406 142 423 163T452 205T475 257T501 336Q509 366 512 382T517 410T518 442T517 498Q516 515 510 535T496 565Q486 576 467
583T425 580Q413 575 395 559T357 521T320 477T292 438T281 413Q281 413 281 408T276 398Q263 384 249 351T222 275T201 190T190 115Q189 95 189 85T192 67T202 47Q208 37 225 29T258 24Z" />
<glyph unicode="P" horiz-adv-x="467" d="M113 -54Q101 -54 93 -41Q87 -35 82 -23T81 18T105 104Q115 142 121 159T127 185Q127 196 129 203T132 218Q138 218 144 229T154 259Q158 276 161 286T165 301Q170 309 175 326T193 367Q201 397 211 429T231 490T249 535Q260
566 266 578T266 595Q259 600 260 617T280 650Q291 663 305 668T338 674T381 672Q399 671 419 671T445 671Q454 667 467 663T490 654T501 646Q501 640 505 639T515 636Q522 636 536 624T566 596T589 562Q597 545 602 530T602 487Q601 472 598 457T590 437Q584 433
579 427T574 416Q574 412 567 398T547 365T522 330T496 301Q483 285 466 271T434 248Q408 236 375 225T312 206T263 200Q234 196 226 193T212 175Q207 162 203 148T198 129Q196 125 190 106T175 62T159 13T147 -29Q143 -43 133 -48T113 -54ZM249 272Q253 268 277
271T332 286Q352 293 372 303T412 325Q422 332 436 345T470 383Q473 388 480 402T494 430Q503 444 512 471T516 517Q511 543 494 562T452 589Q430 593 416 594T384 592Q368 587 361 578T342 540Q335 526 322 500T300 449Q282 383 267 346T248 297Q249 286 247 282T249
272Z" />
<glyph unicode="Q" horiz-adv-x="495" d="M234 -81Q219 -78 198 -67T160 -39T136 -9Q111 42 109 99T123 239Q128 256 136 285T155 343T173 392T183 412Q186 415 186 429Q186 434 194 450T216 488T244 528T272 559Q292 585 317 608T368 644Q374 648 388 653T418
662T446 667Q496 670 526 653T575 597Q595 575 597 553T603 501Q603 474 598 438T583 366T563 307T542 283Q542 283 539 283T536 277Q538 270 532 246T511 192Q479 102 433 39T335 -55T234 -81ZM440 -126Q424 -127 405 -118T381 -95Q374 -89 374 -84T372 -76Q368
-74 361 -66T351 -46Q344 -32 331 -6T302 49T276 99T262 124Q254 132 264 144Q269 156 282 163T314 166Q337 166 356 118Q357 113 365 94T383 57T399 33Q404 22 410 8T423 -15Q426 -26 436 -39T450 -66Q473 -102 470 -114T440 -126ZM246 -4Q288 1 326 41T399 148T464
300Q473 325 486 355T510 422T521 500Q527 544 517 562T483 591Q451 603 415 588T345 530T281 418Q240 331 218 265T190 148T194 51Q196 20 208 5T246 -4Z" />
<glyph unicode="R" horiz-adv-x="542" d="M153 -60Q149 -70 131 -70T95 -58Q83 -46 80 -40T83 -18T107 37Q111 61 121 85T136 120Q140 134 152 166T181 239T213 314T235 368Q252 408 270 452T319 563Q323 573 319 584T297 595Q287 606 286 618T296 636L374 663Q421
674 470 670T564 642Q612 614 633 582T657 518T648 457Q640 436 618 411T566 361T505 316T446 284Q421 272 391 261T332 240Q316 236 294 236T261 240L244 203Q234 167 210 96T153 -60ZM550 -76Q542 -79 527 -78T488 -62Q444 -36 400 1T301 101Q280 126 268 149T240
211L226 265L260 287L302 251Q318 216 340 184T385 127Q403 106 434 77T500 20T563 -21Q569 -26 567 -39T560 -63T550 -76ZM296 309Q319 311 348 321T408 344Q437 358 466 375T521 414T561 460T574 510Q574 523 566 538T544 566T518 582Q478 592 455 594T421 590T405
562Q405 559 397 543T378 502T355 449Q326 390 312 362T295 323T296 309Z" />
<glyph unicode="S" horiz-adv-x="492" d="M262 -60Q244 -55 233 -52T222 -48Q224 -43 221 -39T206 -34Q191 -24 176 -8T151 26T136 52Q129 67 134 70T151 79Q162 87 172 88T190 73Q203 50 232 36T298 20T371 33Q399 45 403 63T391 108Q388 116 383 121T368 134T339
160Q324 167 312 173T285 186Q269 194 249 209T210 242T183 276Q167 291 162 317T160 374T178 428Q184 442 199 464T234 509T271 550T300 576Q308 584 317 592T326 601Q327 606 329 606T332 606Q337 609 354 616T391 642Q458 674 503 686T576 699V699V699Q601 698
624 687T663 657T682 614Q689 590 677 557T641 496T593 453Q565 441 549 447T534 473Q534 481 539 492T570 531Q602 578 605 600T589 626Q583 628 567 626T531 619T498 610T484 603Q484 603 484 600T480 598Q478 598 465 592T435 574T400 551T370 531T357 521Q355
510 334 501Q314 489 299 467T263 410Q246 387 239 361T239 318Q244 302 267 284T330 242Q364 223 393 203T442 164T468 132Q480 115 483 95T486 55T480 23Q473 7 458 -10T430 -27Q419 -30 414 -34T401 -41Q394 -45 369 -50T315 -58T262 -60Z" />
<glyph unicode="T" horiz-adv-x="458" d="M221 -50Q206 -51 195 -35T185 -6Q186 10 194 40T212 101T230 150Q234 166 237 178T242 195Q245 199 251 216T262 249Q264 257 270 279T286 332T305 391T322 442T331 471Q339 483 343 494T348 509Q354 513 355 519T356
530Q356 535 359 538T363 545Q367 548 368 549T374 555L379 583L458 584Q456 572 452 555T433 508Q428 488 422 472T416 451Q414 449 408 431T393 387T376 335T361 290T352 265Q344 249 334 218T304 134Q296 118 285 86T266 28Q255 -11 248 -27T235 -47T221 -50ZM230
541Q193 538 179 548T169 575Q172 587 183 594T221 607Q232 609 249 612T283 618Q316 622 337 625T382 630T440 634Q469 636 489 637T510 639Q513 639 531 637T570 632T601 625Q624 620 636 609T653 580Q656 568 653 563T642 554Q619 547 606 544T579 546Q574 551
568 555T546 561T497 566Q469 563 448 563T427 558L368 555L319 550Q309 549 291 548T256 545T230 541Z" />
<glyph unicode="U" horiz-adv-x="482" d="M226 -57Q176 -42 150 -4T121 102T140 275Q147 310 160 355T190 447T227 539T266 618Q289 659 304 672T334 683Q356 678 367 664T378 632T359 604Q348 591 331 557T295 490Q275 432 260 388T235 304T217 222Q208 180 204
156T198 119T196 95T195 71Q203 58 208 48T221 36Q238 28 257 29T297 43Q302 53 310 57T318 61Q320 56 322 58T326 65Q325 69 328 72T335 80Q343 83 356 98T383 132T406 167T416 187Q416 192 420 196T429 206Q434 211 449 238T483 303T517 371Q520 382 528 406T545
463T564 527T580 585T590 623Q592 636 596 644T601 657Q610 664 621 660T644 650T661 641Q667 633 666 621T660 585T644 514Q623 432 594 363T530 217Q530 217 530 217T530 211Q518 204 511 190Q506 181 503 175T494 165Q491 156 488 149T485 142Q484 137 478 133T466
125Q461 123 460 117T456 107Q434 74 403 41T340 -16T281 -51Q263 -58 252 -59T226 -57Z" />
<glyph unicode="V" horiz-adv-x="490" d="M263 -59Q258 -57 256 -53T252 -37Q252 -26 246 -21T223 -12Q212 -1 206 13T196 59T188 156Q190 191 191 215T195 260T199 305T207 365Q205 388 209 415T211 458Q218 480 220 508T229 559Q231 576 233 591T236 616Q234
636 239 656T264 685Q270 687 280 687T297 685Q310 679 313 666T315 642Q317 631 317 604T313 545T303 481Q295 440 291 398T284 314Q280 232 276 178T275 100Q275 97 276 89T279 75T285 69Q290 70 294 77T303 97T314 123Q327 148 340 177T364 234Q382 276 400
306T434 373Q440 389 455 419T485 476Q502 502 517 526T554 590Q583 638 602 659T637 680Q648 682 654 681T667 669Q675 658 676 645T669 611T634 552Q614 522 590 482T545 407T515 354Q510 343 506 331T494 309Q484 299 467 266T434 201Q416 159 406 136T389 97T376
68T361 33Q356 16 348 2T338 -18Q331 -29 316 -40T285 -56T263 -59Z" />
<glyph unicode="W" horiz-adv-x="720" d="M501 -59Q488 -60 478 -54T463 -37Q459 -32 451 -17T440 10Q437 42 437 72T439 156Q442 200 451 237T468 301T482 343T484 358Q480 358 475 348T462 323T448 292T433 263Q419 232 401 198T363 131T330 75Q321 65 309 47T283
8T254 -25Q232 -46 210 -49T168 -42Q161 -40 153 -32T139 -12T137 13Q136 27 137 56T143 121T151 190T160 245Q169 309 184 376T213 511Q221 531 227 556T241 604Q242 626 255 632T283 635T306 621Q316 611 323 590T317 537Q297 488 279 418T245 247Q241 223 237
193T229 134T224 86T224 66Q232 65 243 77T265 113Q306 181 343 250T418 393Q435 422 452 456T486 520Q503 550 518 577T545 622T563 642Q586 642 599 631T620 599Q622 594 621 582T616 561Q615 554 608 532T594 483Q584 456 577 430T566 386Q558 343 546 292T526
191T516 100Q515 72 516 61T522 41Q524 33 532 35T548 47Q564 69 573 86T593 122T617 168Q642 214 668 269T719 379T762 476Q781 530 793 563T816 613T836 637Q841 641 855 641T878 633Q882 629 890 620T897 599Q892 583 879 548T849 469T816 387T789 325Q778 304
768 289T758 266Q758 262 748 242T723 192T689 132T655 75T628 35Q603 4 576 -17T529 -48T501 -59Z" />
<glyph unicode="X" horiz-adv-x="524" d="M634 648Q654 647 661 629T663 581T633 517Q610 494 607 478Q600 469 586 453T555 418T526 385T509 368Q495 356 478 340T447 311T429 292Q422 285 416 278T405 268Q404 264 399 259T392 248Q390 247 379 237T355 215T331
192T319 180Q308 170 285 146T234 91T180 33T137 -16T117 -42Q113 -50 105 -52T88 -53Q84 -55 73 -54T60 -52Q60 -52 58 -47T54 -31Q48 -21 53 -4T62 24Q69 37 76 46T100 70T152 119Q168 135 184 149T202 167Q203 171 210 178T224 195Q231 200 247 215T284 250T323
289T356 320Q362 328 370 336T389 357Q390 359 402 371T432 401T464 435T488 461Q528 508 560 551T606 622Q616 643 621 645T634 648ZM493 -30Q474 -28 451 -10T405 50Q368 101 340 173T301 330Q296 365 290 390T282 418Q281 422 283 423T286 425Q289 428 287 431T283
440Q283 440 278 463T270 520Q266 556 264 582T259 617Q256 619 256 623T256 627Q258 633 266 640T277 651Q292 662 308 657T337 634T349 592Q349 566 355 560Q354 558 354 545T356 516T360 485T363 466Q359 454 363 449Q364 441 366 428T367 409Q366 404 369 392T376
366L402 276Q410 244 417 220T434 172T458 119Q469 95 484 75T511 47Q513 45 521 45T532 47Q543 50 547 41T553 20T554 -2Q556 -9 547 -16T523 -27T493 -30Z" />
<glyph unicode="Y" horiz-adv-x="504" d="M319 262L284 306Q264 336 252 362T235 426Q228 450 226 471T224 519T226 588Q227 626 237 648T251 678Q268 694 280 684T298 649T303 595Q306 488 317 431T347 359Q358 356 367 361T393 384T438 433Q466 462 494 494T547
557T593 609T626 638Q630 644 638 648T654 654T662 656Q670 654 671 644T679 623Q681 619 686 612T690 600Q690 597 683 589T667 572T654 559Q641 548 614 521T557 462T508 405Q464 354 430 317T387 273Q386 271 374 267T356 254L319 262ZM258 -73Q254 -72 243
-65T222 -51Q215 -43 214 -35T216 -12T227 29Q228 52 236 85T257 140Q257 151 262 170T274 209T288 245L306 297L346 331L390 297Q386 291 383 283T375 256T360 197Q352 170 343 139T325 81T311 37Q299 -8 291 -33T276 -67T258 -73Z" />
<glyph unicode="Z" horiz-adv-x="522" d="M119 -50Q98 -48 80 -44T55 -21Q48 -2 56 19T74 51Q91 69 110 90T157 138T223 203T321 292Q361 326 385 348T428 390T470 433Q505 469 530 498T560 547Q566 567 562 575T539 587T486 593Q424 598 374 593T280 579Q273
577 264 585T254 597Q258 602 258 609T250 623Q246 633 250 641T258 654Q266 658 286 660T330 667Q345 670 374 671T434 672T483 670Q519 667 556 662T620 647T657 614Q668 591 662 573T644 525Q632 503 604 467T539 391T464 316Q408 264 364 224T275 145Q247 121
222 98T168 49Q158 36 164 29T212 23Q235 24 248 27T276 33T318 37Q370 40 408 42T475 45Q483 45 488 43T504 27Q513 24 514 15T512 -5T498 -23Q491 -23 474 -26T436 -32T399 -34Q386 -33 350 -35T271 -43Q234 -49 190 -50T119 -50Z" />
<glyph unicode="[" horiz-adv-x="330" d="M71 -139Q54 -131 50 -114T58 -79Q63 -76 67 -68T71 -53Q71 -46 76 -22T90 34T108 97T124 150T135 177Q135 182 142 199T166 242Q182 293 203 352T248 468T290 567T322 629Q325 642 327 653T330 669Q330 689 340 698T379
708Q408 712 431 713T478 718T536 734Q551 737 568 746T590 756Q602 759 608 754T622 736Q636 720 635 711T611 692Q594 687 566 679T508 663T455 653Q436 648 423 644T406 636Q404 633 398 621T385 593T373 566T367 552Q365 550 357 535T339 499T321 460T311 432Q309
426 301 406T283 363T270 329Q266 319 261 302T250 268T240 242Q240 239 238 227T230 207Q226 200 221 187T212 162Q208 155 204 149T200 138Q200 135 200 129T195 112Q192 108 192 103T191 98Q187 94 183 76T170 36Q162 11 156 -8T150 -35L145 -63L175 -57Q193
-54 221 -51T277 -45T320 -42Q338 -38 345 -40T358 -47T371 -62Q375 -70 377 -75T376 -84Q374 -87 353 -92T304 -103T255 -112Q239 -112 229 -112T218 -112Q218 -121 185 -121Q174 -127 156 -131T131 -139Q109 -148 96 -148T71 -139Z" />
<glyph unicode="\" horiz-adv-x="330" d="M335 -115Q331 -115 327 -114T321 -109Q303 -105 307 -90Q307 -86 303 -66T293 -15T278 49T262 117T247 175T236 212Q237 216 236 220T235 228Q234 233 233 240T232 251Q228 255 227 264T226 282Q226 290 224 297T218
305Q217 308 213 327T204 375T192 436T180 498T172 549T168 578Q170 586 168 597T163 620Q160 666 168 693T191 730T225 732Q231 727 234 712T233 674Q232 663 235 635T244 569T256 491T268 415T277 357Q284 335 285 320T285 301Q285 301 285 296T289 290Q293 286
293 282T294 274Q293 272 296 259T304 228T314 194T323 169Q323 156 325 147T327 134Q327 132 330 121T338 93T347 61T354 34Q365 2 371 -15T380 -41T380 -63Q380 -74 378 -82T365 -98Q355 -105 345 -110T335 -115Z" />
<glyph unicode="]" horiz-adv-x="330" d="M120 -121Q116 -121 107 -121T87 -119Q80 -120 64 -120T30 -118Q15 -119 -1 -114T-23 -109Q-23 -109 -28 -104T-38 -92L-52 -82L-40 -77Q-36 -72 -19 -67T21 -57T61 -49T85 -48Q88 -48 98 -49T119 -50L149 -47L159 -20Q161
-8 162 4T164 21Q170 26 173 34T176 48Q179 56 184 72T196 107Q198 123 208 150T222 203Q228 223 236 246T247 282Q249 297 256 313T264 344Q273 372 288 417T320 514T352 612Q363 634 368 654T374 675Q374 675 355 674T306 670Q243 666 216 665T184 663T178 666Q175
669 175 672T171 675Q167 674 163 681T158 695Q158 704 175 712T223 727T289 738Q333 743 345 742T361 740Q372 743 392 746T431 750T458 746Q461 746 467 736T474 715Q482 701 482 698T476 686Q472 680 464 665T447 631T433 599T428 582Q428 579 427 577T421 573Q421
573 419 572T416 566Q418 558 413 544T404 529Q404 529 402 528T399 522Q399 518 397 508T389 484Q379 449 369 426T359 400Q359 400 356 393T351 379Q347 371 343 353T337 318Q328 305 321 287T312 262Q309 252 308 243T306 234Q306 231 302 213T291 174T279 144Q279
140 274 120T261 74Q257 51 252 30T245 4Q245 1 241 -2T236 -11Q236 -15 236 -21T231 -32Q228 -37 228 -42T228 -48Q231 -48 230 -50T229 -52Q226 -52 226 -59T225 -72Q225 -93 219 -104T197 -119T155 -121Q131 -118 125 -118T121 -120T125 -122T120 -121Z" />
<glyph unicode="^" horiz-adv-x="446" d="M134 292Q129 296 125 304T121 328T134 374Q151 408 158 424T177 453Q186 469 203 488T242 525T285 553T321 562Q330 561 343 543T372 495T403 434T430 374T450 329Q455 317 450 303T433 280T409 272T391 296Q386 311
383 321T371 350T343 411Q327 438 320 453T307 475T291 478Q278 474 264 461T233 422T195 349Q184 316 167 300T134 292Z" />
<glyph unicode="_" horiz-adv-x="446" d="M115 -12Q109 -12 100 -12T80 -7Q65 -7 58 -2T46 11Q35 26 46 32T95 43Q112 47 145 49T218 53T293 56T349 57Q375 57 386 54T409 40Q424 25 418 10T388 -2Q383 -2 370 -3T342 -5T315 -7Q309 -7 284 -8T224 -10T160 -11T115 -12Z" />
<glyph unicode="`" horiz-adv-x="353" d="M342 431Q330 421 324 424T312 450Q307 464 296 482T275 518T260 551T262 577Q270 586 281 595T307 598Q315 595 325 580T344 543T361 501T372 466Q373 463 368 456T355 441T342 431Z" />
<glyph unicode="a" horiz-adv-x="443" d="M118 26Q114 34 103 41T92 52Q92 56 89 63T82 74Q77 80 84 103T107 159T141 227Q149 235 157 248T169 265Q169 269 172 272T179 276L185 289Q186 293 196 305T221 331T251 359T276 378Q297 392 319 392T358 380Q361 377
370 369T392 350T414 331L451 298L434 248Q421 208 427 178T446 126Q451 115 462 108T487 98Q495 97 502 92T509 76Q509 57 502 48T485 37Q452 33 423 47T369 107Q365 113 359 129T351 151Q347 146 339 137T325 121Q254 49 203 27T118 26ZM167 100Q172 97 189 105T231
133Q265 162 291 186T338 241L360 277Q350 300 341 307T324 315Q311 315 291 296T246 243T193 161Q181 140 174 120T167 100Z" />
<glyph unicode="b" horiz-adv-x="441" d="M223 10Q203 12 194 18T179 38Q171 47 170 52T169 61Q174 61 178 61T183 65Q183 68 186 69T194 69Q213 68 241 82T302 121T369 176Q395 210 406 227T418 254T414 273Q410 281 392 281T342 260Q299 233 273 210T225 158Q217
148 209 136T194 115T188 106Q188 102 177 96T157 90Q153 92 147 97T138 112Q129 118 124 123T119 138Q119 145 122 157T130 192Q136 218 143 246T157 294T167 317Q167 317 171 326T175 347Q177 359 181 368T186 381Q190 384 198 405T218 460Q218 463 225 479T242
518T262 565T280 609Q292 626 300 642T315 662Q320 663 330 659T352 649T369 634Q372 629 372 625T369 609T352 572T318 501Q290 441 274 399T247 325T227 268L222 246L247 273Q259 283 272 294T299 316Q307 322 320 328T347 340T366 346Q369 347 384 350T417 353Q439
353 454 340T483 304Q494 283 492 253T475 199Q470 195 465 189T460 178Q459 171 442 150T408 109Q390 90 364 72T313 39T269 18Q261 17 246 15T223 10Z" />
<glyph unicode="c" horiz-adv-x="361" d="M217 1Q188 -4 161 5T117 37T100 91Q97 121 106 161T133 243T174 314Q194 338 214 358T250 385Q264 391 282 394T308 397Q324 393 343 384T362 362Q362 362 364 360T367 357Q373 357 379 343T389 311T386 282Q382 263
371 247T352 230Q348 230 345 230T341 224Q341 219 332 219T314 223T302 236Q302 241 304 250T311 279Q317 307 312 316T286 317Q261 303 243 283T210 227T180 133Q174 110 177 96T184 80Q198 76 217 78T247 87Q263 95 278 106T308 128Q313 131 318 139T331 151Q339
163 349 164T372 165Q380 163 388 156T400 143T398 134Q394 134 394 132T393 129Q395 124 385 111T358 82T328 55T307 44Q297 44 297 38Q297 36 283 28T250 12T217 1Z" />
<glyph unicode="d" horiz-adv-x="399" d="M370 -19Q357 -22 346 -14T330 6Q323 25 321 43T319 82V112L279 77Q245 45 215 32T160 19Q149 21 135 31T110 54T94 78Q88 92 90 116T102 170T126 228T160 278Q193 328 238 340T321 331Q342 321 349 323T360 339Q364 355
368 370T382 413Q407 489 425 532T459 607Q470 630 480 638T498 645Q509 645 523 637T542 615Q546 606 546 597T539 577Q526 553 509 514T474 427T441 334T416 253Q410 231 406 197T400 128T398 65T401 29Q407 9 403 -1T390 -14T370 -19ZM204 99Q218 103 229 110T256
129Q286 152 302 169T327 217Q331 233 326 244T310 265Q298 274 280 273T240 251Q216 229 197 198T167 112Q165 102 174 97T204 99Z" />
<glyph unicode="e" horiz-adv-x="331" d="M287 25Q260 8 229 5T169 13T124 49Q111 65 104 93T101 170Q106 213 128 257T183 336T252 384Q267 390 280 391T316 391Q339 388 355 381T379 363Q394 347 399 333T404 304Q399 275 375 240T309 186Q290 179 266 178T210
186Q188 192 181 182T173 139Q173 115 180 100T206 81Q228 77 238 78T264 88Q275 95 281 99T293 109T306 119Q312 124 316 126T326 128Q335 127 343 118T354 102Q358 97 350 83T325 54T287 25ZM278 244Q287 248 300 258T323 281T333 301Q333 313 319 321T281 324Q272
322 260 312T237 290T217 267T208 251Q212 246 224 244T252 241T278 244Z" />
<glyph unicode="f" horiz-adv-x="297" d="M138 -116Q132 -120 116 -109T85 -82Q78 -74 76 -65T77 -31Q81 -20 81 -10T82 4Q82 10 85 32T93 78T100 116Q100 117 101 122T104 131Q106 140 109 153T115 189Q123 214 128 238T134 272Q134 290 148 298Q149 303 154
313T163 331Q183 388 196 421T223 480Q229 498 236 516T252 544Q259 557 276 577T314 617T346 646Q368 657 385 663T423 669Q442 669 454 662T489 633Q501 620 501 610T499 590Q493 575 481 553T457 513T439 494Q427 488 417 492T406 511Q406 518 406 524T405 530Q407
540 410 549T418 565Q425 577 422 587T400 594Q397 592 387 584T366 565T347 545T338 533Q338 533 333 523T317 500Q310 490 305 481T300 468Q300 464 299 461T294 457Q294 457 291 448T279 424Q275 414 270 405T261 391V390Q261 390 257 379T247 354T242 339Q242
335 255 335T285 338T319 346Q333 350 339 350T358 346Q366 341 371 330T379 307T379 291Q378 287 357 280T315 269Q297 265 273 260T232 251T213 243Q209 243 207 238T204 230Q204 216 199 209Q197 203 193 185T183 145T175 105T171 80Q165 73 164 63T163 44Q159
36 158 30T157 19Q157 18 157 15T156 9Q155 -1 154 -17T152 -50L149 -79Q148 -92 146 -101T138 -116Z" />
<glyph unicode="g" horiz-adv-x="361" d="M211 -197Q183 -208 153 -194T100 -148Q96 -142 89 -128T76 -97T66 -68T66 -54Q70 -46 81 -45T104 -47T118 -57Q121 -64 125 -73T135 -89T145 -100Q159 -114 170 -118T189 -117Q206 -104 215 -86T239 -23Q250 14 259 46T277
101Q280 113 284 121T293 134H299Q277 120 262 105T220 78Q214 71 191 70T145 75Q131 83 123 90T110 106T99 131Q92 146 97 180T115 248Q127 273 150 302T199 354T246 384Q254 388 270 392T305 392Q322 390 331 385T360 362Q373 349 388 331T409 299Q416 284 413
268T400 239Q391 226 381 213T366 177Q361 147 348 110T327 40L311 -22Q286 -107 259 -146T211 -197ZM185 139Q205 140 220 144T250 163T282 203Q299 227 306 249T311 296Q310 312 304 317T284 320Q265 317 247 303T209 263Q194 243 184 215Q174 185 174 164T185
139Z" />
<glyph unicode="h" horiz-adv-x="470" d="M138 43Q131 42 123 47T108 57Q98 68 95 75T91 93T95 121Q100 137 107 164T123 222Q126 235 131 252T143 284T152 307Q159 333 166 355T185 407T212 482Q234 542 245 572T261 616T269 638Q269 646 278 652T295 659Q309
658 320 643T336 608T330 569Q314 533 298 487T266 395T235 314Q234 310 230 299T221 279Q217 271 214 264T210 257Q209 252 206 241T199 219Q197 212 194 200T190 179Q195 186 206 197T231 222Q247 236 262 248T289 269Q300 277 309 283T319 290Q320 294 323 296T329
300Q332 301 335 304T342 311Q348 316 358 320T381 326T404 329Q416 329 427 321T449 296Q460 282 463 263T462 216Q462 208 458 189T453 156L445 123H455Q465 126 474 123T484 120Q489 117 493 113T501 108Q509 102 503 89T486 69Q462 53 443 51T406 61Q388 75
382 94T380 144Q384 188 384 208T374 228Q363 228 341 216T292 183T239 137T193 86Q181 71 168 58T138 43Z" />
<glyph unicode="i" horiz-adv-x="193" d="M106 22Q98 30 95 44T92 73T97 96Q97 104 99 108T101 117Q100 121 103 131T109 150Q116 166 124 190T141 240T155 283T162 306Q162 318 178 319Q190 323 203 313T227 286Q235 278 233 264T220 226Q216 218 211 201T203
171Q199 163 194 149T184 121Q182 116 180 104T175 79T167 58Q158 17 141 10T106 22ZM210 425Q201 432 196 442T191 462T192 472Q201 480 210 497T224 529Q225 532 228 537T236 543Q248 551 266 543T294 519Q303 500 300 483T278 443Q263 423 244 419T210 425Z"
/>
<glyph unicode="j" horiz-adv-x="210" d="M63 -204Q41 -226 7 -226T-52 -200Q-71 -172 -79 -145T-84 -100T-66 -82Q-61 -82 -53 -85T-39 -95T-33 -109Q-33 -124 -29 -135T-11 -148Q0 -152 14 -145T39 -119Q49 -106 61 -78T87 -20T107 30Q119 71 127 114T145 206Q149
233 154 252T160 276Q160 280 161 292T167 315Q167 330 170 346T174 367Q177 370 185 368T203 362T217 352Q225 344 230 335T236 307T232 247Q232 241 229 223T221 181T211 137T203 101Q199 86 194 68T188 43Q187 37 181 20T169 -15T161 -39Q160 -43 156 -58T137
-104Q132 -116 118 -137T88 -178T63 -204ZM215 479Q204 492 208 518T228 566Q241 581 261 583T294 574Q305 557 307 542T298 511Q273 483 251 476T215 479Z" />
<glyph unicode="k" horiz-adv-x="371" d="M123 0Q115 3 103 15T83 42T74 69Q79 80 87 107T107 171Q115 182 119 196T128 223Q136 240 146 264T166 313T184 356Q198 385 207 407T226 452T247 501Q261 531 273 561T295 615T307 649Q306 657 309 660T317 665Q322
668 330 669T343 670Q353 669 365 652T377 623Q377 607 362 564T317 462Q283 387 264 344T239 282T233 258Q233 258 243 262T269 278Q280 285 294 295T321 314T342 325Q349 330 359 336T376 348Q395 360 405 356T424 339Q435 326 431 314T399 280Q377 265 351 250T303
222T275 204Q275 204 283 191T300 165Q308 149 319 128T335 99Q346 78 361 70T399 71Q416 76 426 72T442 57Q446 49 446 43T432 25Q407 6 383 -4T338 -2Q319 8 299 28T250 87Q250 91 245 102T237 117Q233 125 228 132T223 140Q221 149 217 155T207 164Q199 164
194 156T182 137Q176 122 170 105T159 69T155 33Q155 20 147 10T123 0Z" />
<glyph unicode="l" horiz-adv-x="175" d="M138 -7Q119 -12 105 2T87 46T90 112Q95 124 98 135T101 154Q103 164 109 183T122 224T135 261T144 282Q148 282 151 289T154 303Q154 311 157 321T165 335Q165 340 167 346T170 357Q170 361 172 365T175 373Q182 386
193 414T218 478T244 547T263 604T271 633Q271 641 276 647T290 653Q293 656 301 657T314 659Q314 659 318 655T330 643Q338 636 343 627T349 606Q349 593 346 582T334 550T306 490Q298 470 289 453T280 431Q280 427 277 419T269 399Q265 391 258 376T244 343T231
313T226 298Q226 294 226 290T221 282Q217 282 217 277T216 271Q216 261 200 218Q184 163 171 117T157 43Q157 19 152 8T138 -7Z" />
<glyph unicode="m" horiz-adv-x="566" d="M561 30Q555 32 542 42T518 73T509 129Q510 159 512 173T507 188Q501 189 484 177T441 142T382 84Q371 73 358 61T333 43T309 46L298 55Q292 61 289 69T287 85L313 159Q326 188 331 201T336 218T331 221Q325 220 312 211T295
195Q291 195 284 187T269 172Q263 164 246 147T211 111Q198 99 183 81T156 47T141 32Q125 33 112 42T93 68Q87 81 93 111T111 201Q115 216 118 225T124 245T133 269T150 308Q156 324 156 335T155 353Q155 367 163 375T181 386T199 388Q222 385 231 371T242 341Q243
327 239 316T231 296L220 269Q212 250 206 236T198 214T196 203Q197 200 204 205T222 221T243 239Q262 255 284 271T328 300T363 317Q380 315 391 304T411 280Q417 268 415 257T411 235Q410 231 407 219T400 195T396 184Q396 184 403 191T422 207T443 224Q489 259
518 269T568 250Q580 239 582 222T585 173Q586 160 587 144T591 114T595 98Q598 94 606 91T624 86Q638 81 640 65T626 39Q611 30 594 29T561 30Z" />
<glyph unicode="n" horiz-adv-x="456" d="M447 31Q425 33 411 40T388 70Q384 86 384 103T384 137T387 163Q388 165 388 172T388 188Q386 204 380 207T359 204Q339 194 313 177T259 138T203 92Q181 68 173 54T154 40Q146 36 138 41T120 54Q113 62 105 73T94 88Q94
100 96 114T104 143T116 171Q120 176 123 184T133 203Q136 216 144 235T159 270Q171 295 177 313T186 354Q185 356 187 360T194 365V365H195Q202 371 219 368T245 354Q265 334 264 307T233 232Q226 216 220 204T213 187Q213 187 222 193T243 208T263 222Q268 227
285 240T322 268T354 288Q364 295 378 302T397 309Q406 309 420 302T446 284T460 265Q460 261 460 256T459 245Q460 230 460 208T460 165T455 131Q455 131 456 129T459 125Q458 123 458 121T459 119Q458 115 460 108T466 91T477 71Q480 58 471 47T447 31Z" />
<glyph unicode="o" horiz-adv-x="359" d="M168 10Q155 10 148 15T129 29Q110 49 100 70T93 109Q96 117 96 124T95 132Q90 137 92 138T96 144Q102 144 100 155Q98 163 107 189T131 240Q137 250 149 266T175 299T202 326Q227 347 247 359T290 376Q312 381 330 381T364
365Q387 355 397 339T410 296Q413 266 405 224T356 125Q331 89 308 70T256 34Q235 20 213 16T168 10ZM268 126Q291 148 302 171T325 228Q329 235 330 250T331 279T323 295Q313 302 302 299T274 283Q244 258 219 224T180 141Q173 112 181 97T212 87T268 126Z" />
<glyph unicode="p" horiz-adv-x="378" d="M61 -230Q57 -230 50 -230T38 -222Q34 -217 29 -204T28 -165Q33 -148 36 -132T39 -107Q39 -103 41 -92T44 -75Q49 -67 52 -53T55 -28Q55 -16 67 -6Q67 2 70 14T74 30Q77 44 87 79T113 160T144 248T171 321Q183 349 190
372T197 405Q197 409 199 411T208 422Q218 432 231 429T256 418Q264 405 267 395T267 363Q267 348 261 336T249 317T246 311Q289 335 323 337T380 326T416 288T429 235Q429 223 422 204T406 169T391 147Q387 147 383 141T375 126Q367 116 349 104T312 84T286 79Q286
79 284 78T281 71Q281 69 266 63T232 52T196 46Q175 46 166 54Q164 52 162 48T159 41Q159 35 155 21T144 -5T133 -17Q133 -17 131 -20T133 -28Q133 -28 133 -39T127 -59Q127 -67 124 -83T117 -107Q117 -119 114 -130T106 -142Q102 -143 101 -154T100 -171Q99 -196
86 -213T61 -230ZM187 115Q195 115 217 122T263 139T301 161Q327 184 341 208T339 260Q331 274 312 272T271 255T227 220Q215 207 205 189T189 154T181 126T187 115Z" />
<glyph unicode="q" horiz-adv-x="377" d="M246 -227Q234 -219 225 -210T210 -181Q205 -154 209 -112T225 -19T256 86Q261 94 265 106T269 122Q223 99 200 88T159 77Q146 77 131 91T105 124T94 160Q94 176 110 208T146 268Q154 282 175 301T219 337T256 363Q264
368 272 371T288 379Q296 384 303 387T314 390Q330 394 351 393T384 388Q396 380 411 359T431 317Q431 307 430 299T424 276T404 232Q388 208 378 185T367 158Q362 145 353 124T335 86T324 62Q322 52 315 27T301 -29T287 -87Q279 -131 279 -164T287 -209Q291 -221
277 -228T246 -227ZM168 150Q200 144 230 164T292 214Q309 230 323 251T345 292T350 319Q346 327 324 318T270 284Q234 256 213 232T179 179L168 150Z" />
<glyph unicode="r" horiz-adv-x="360" d="M119 30Q110 37 102 46T97 76Q100 104 105 125T117 175Q119 187 127 216T149 279T175 343T198 389Q208 398 226 398T253 389Q264 380 259 358T230 288Q222 271 215 258T207 238T211 233Q217 244 233 258T267 287T301 312T323
326Q331 331 341 334T356 340Q379 351 405 349T438 331Q439 323 444 319T450 315Q454 315 454 312T455 309Q455 302 443 293T414 282Q401 281 391 277T367 267Q329 245 297 227T233 174Q226 166 219 158T203 136Q198 131 193 114T185 82T181 63Q181 63 178 54T168
35Q156 19 146 17T119 30Z" />
<glyph unicode="s" horiz-adv-x="347" d="M156 -5Q127 7 111 21T95 47Q96 54 100 58T121 63T174 55Q185 55 198 56T223 60T239 67Q244 68 242 71T235 79Q231 83 226 85T217 87Q216 92 209 97T191 108Q169 126 152 140T139 161Q139 165 139 165T139 166Q132 166
125 185T118 221Q118 239 126 258T147 296T174 329Q192 346 215 364T265 397T317 419Q333 423 350 423T376 417Q385 419 396 411T417 391T432 368Q432 356 431 340T428 311T418 298Q418 298 416 298T413 292Q413 282 398 269Q379 256 363 250T340 253Q335 257 331
260T323 268Q323 268 321 272T318 281Q318 285 321 288T324 292Q335 301 342 312T354 333T359 349Q359 355 357 356T346 357Q338 355 321 347T285 327T258 308Q254 301 253 299T247 297Q247 301 242 295T229 279T214 258T202 241Q200 234 197 226T195 210Q194 199
201 192T226 170Q261 144 279 129T306 104T316 85Q333 54 322 34T284 1Q274 -4 250 -8T200 -12T156 -5Z" />
<glyph unicode="t" horiz-adv-x="331" d="M174 2Q163 4 151 14T128 39T115 63Q115 65 113 68T110 71Q106 74 106 97T108 150T115 196Q120 212 130 239T147 289L174 347L134 358Q127 360 123 366T118 376Q118 384 127 398T140 412Q145 411 158 411T185 412T201
414Q205 416 209 419T215 430Q220 441 224 448T235 467Q242 480 246 489T261 514Q266 521 272 531T287 548Q296 556 313 558T345 547Q353 537 354 530T346 508Q338 491 328 477T308 445Q292 423 302 420T358 424Q387 429 400 419T415 392Q418 368 410 363T364 358Q340
354 323 354T298 353Q285 352 281 352T269 350Q261 348 258 344T250 331Q246 327 238 310T218 273Q204 231 194 192T178 114Q174 93 179 84T205 73Q216 72 238 73T274 79Q285 84 297 89T319 101Q328 106 337 111T346 117Q351 125 359 117T372 97Q372 85 367 70T330
36Q285 8 243 3T174 2Z" />
<glyph unicode="u" horiz-adv-x="370" d="M337 2Q327 12 320 29T306 70Q304 78 304 89T304 107Q301 100 295 90T282 75Q278 71 264 60T236 41Q203 20 179 20T136 45Q120 58 111 76T108 123Q110 158 118 191T151 281Q172 322 183 344T197 370Q212 375 230 370T250
350Q256 340 250 314T225 252Q211 218 199 186T185 130T196 102Q205 97 224 104T269 141T322 237Q330 257 334 272T339 307Q337 319 343 331T362 350Q366 355 373 359T382 359L398 360Q402 361 406 353T415 341Q426 332 424 302T398 218Q379 177 373 156T365 115Q365
97 369 84T389 57Q400 50 401 36T402 10Q400 1 388 -3T362 -7T337 2Z" />
<glyph unicode="v" horiz-adv-x="331" d="M180 56Q173 62 162 91T141 161T125 236Q121 256 117 270T109 293Q104 311 110 328T128 353Q133 356 144 357T160 358Q172 354 182 322T200 236Q204 205 208 188T212 167Q216 159 218 149T229 146Q233 150 243 161T265
189Q286 217 298 235T327 274Q334 284 345 296T367 318T386 331Q410 335 414 316T399 269Q391 257 387 247T378 232Q370 216 353 192T320 147T298 120Q294 116 281 105T255 77Q231 54 212 49T180 56Z" />
<glyph unicode="w" horiz-adv-x="517" d="M172 35Q157 35 143 56T122 109T116 173Q116 205 119 224T127 263Q130 269 130 273T132 286T139 316Q143 333 147 344T155 359Q165 372 177 374T201 372T215 354Q221 349 221 332T219 296T210 269Q208 264 206 243T201
199T195 162Q192 144 198 138T219 143T262 194Q282 224 292 241T308 274T321 308Q326 324 330 334T339 348Q348 360 363 358T391 348Q403 336 405 317T395 274Q387 258 380 235T368 189T363 150Q363 130 368 127T382 123Q394 123 407 131T441 162Q450 171 463 189T488
226T509 261T518 281Q518 287 527 298Q533 306 536 310T550 320Q558 324 566 322T582 311Q587 307 589 294T591 269Q588 258 582 239T569 204T557 181Q553 177 543 167T525 144Q500 114 489 105T470 88Q449 67 423 55T375 42T338 51Q307 67 307 105Q307 113 305
119T302 126Q298 126 292 124T278 110Q269 93 248 76T206 47T172 35Z" />
<glyph unicode="x" horiz-adv-x="343" d="M391 -7Q387 -7 381 -6T370 -1Q366 -1 356 2T338 9Q328 13 311 25T277 53T249 81T237 100Q237 105 232 105Q232 105 229 108T226 116Q226 126 216 126Q216 126 202 112T167 78Q139 50 126 38T104 25Q96 25 84 32T64 50T55
77Q55 77 75 100T124 147L179 202L168 240Q161 256 154 273T142 303Q130 320 130 324T137 341V341V341Q145 349 159 355T185 354Q191 354 201 338T219 302T228 274Q228 258 236 258T269 275Q281 286 288 293T295 301Q298 304 313 315T344 339T365 354Q373 360 384
355T404 339T413 317Q413 305 407 293T380 270Q362 257 351 248T329 229T295 200L269 179L285 152Q289 145 296 135T311 120Q317 112 332 99T363 76T380 65Q384 65 389 62T401 55Q409 47 409 32T404 5T391 -7Z" />
<glyph unicode="y" horiz-adv-x="341" d="M84 -205Q52 -212 21 -208T-33 -190T-60 -161Q-64 -144 -55 -134T-32 -122T-14 -126Q-6 -131 12 -140T57 -144Q80 -139 99 -121T133 -83Q141 -71 160 -40T199 28T234 98Q237 106 241 117T251 135Q257 147 261 157T267
172Q268 177 276 192T291 222Q296 237 306 266T326 313Q338 336 345 350T362 368V368V368Q371 375 377 375T395 369Q407 357 413 346T417 318T399 273Q391 249 382 230T367 204Q362 192 356 178T344 151Q326 111 313 86T290 40T269 -9Q246 -46 225 -79T179 -142Q169
-151 152 -164T116 -190T84 -205ZM212 26Q197 28 181 45T154 81T145 109Q145 114 145 117T145 120Q139 120 136 136T130 179T128 233T131 286Q135 303 135 323T136 356Q135 372 141 380T151 392V392V392Q185 407 199 376T209 273Q207 233 208 196T216 131T241 92Q248
88 247 77T240 54T226 34T212 26Z" />
<glyph unicode="z" horiz-adv-x="315" d="M140 17Q102 12 83 12T54 15T34 27Q24 34 24 52T56 102Q75 125 95 145T131 179Q138 185 146 190T172 209T230 248Q249 263 258 269T273 280T287 291Q280 292 259 294T218 294Q190 294 185 294T171 297H156Q151 297 139
303T116 318T104 334Q104 334 110 340T120 350Q128 355 132 358T141 357Q141 357 164 358T211 360Q269 359 296 357T337 348T364 330Q380 314 382 296T373 265Q369 261 366 257T359 252Q359 252 345 243T311 221Q292 208 274 197T251 181Q244 177 234 171T220 160Q217
156 207 146T184 128Q175 120 164 110T145 91T137 83Q137 83 153 85T197 90T253 91Q300 92 327 93T369 95T392 90Q399 88 403 78T408 58T408 45Q404 45 377 43T315 38Q269 34 226 28T140 17Z" />
<glyph unicode="{" horiz-adv-x="330" d="M176 -137Q167 -123 167 -129Q167 -129 158 -121T144 -106Q136 -95 135 -85T134 -58Q134 -48 134 -39T134 -30Q139 -25 140 -18T142 -4Q144 4 152 29T171 82T189 127Q200 148 207 169T214 201Q214 217 201 228T164 243Q134
243 144 272Q148 284 160 291T186 294Q201 294 220 309T257 349T284 404Q296 436 302 466T312 546Q315 585 323 612T347 663T387 709Q401 727 418 735T447 749Q467 757 489 757T519 752Q524 750 529 739T538 716T539 702Q534 702 524 700T498 697Q479 693 465 684T431
658Q415 637 409 627T400 597Q393 579 390 568T385 542T380 498Q377 468 375 451T369 419T355 381Q342 344 326 317T286 270Q269 260 268 256T275 241Q275 237 280 228T285 208Q292 192 286 169T256 92Q249 77 243 61T237 37Q232 30 227 13T218 -18Q214 -39 211
-50T208 -65Q208 -84 253 -77Q270 -72 276 -75T289 -88Q300 -98 296 -111T269 -131Q254 -139 235 -142T200 -144T176 -137Z" />
<glyph unicode="|" horiz-adv-x="330" d="M150 -145Q131 -150 117 -136T99 -94T102 -28Q107 -16 110 -5T113 14Q115 22 123 49T142 113T165 184T185 244T196 272Q200 272 203 279T206 293Q206 301 209 311T217 325Q217 330 219 336T222 347Q222 351 224 355T227
363Q233 374 245 404T274 476T308 562T340 647T364 713T373 743Q373 751 382 758T399 765Q402 768 406 769T415 770Q415 770 419 766T431 754Q439 747 445 735T452 711Q452 698 449 688T437 659T409 600Q406 592 397 572T378 527T357 479T340 439T333 421Q333 417
330 409T322 389Q318 381 311 366T297 333T284 303T279 288Q279 284 279 280T274 272Q270 272 270 267T269 261Q269 251 253 208Q246 186 236 152T215 78T193 1T177 -63T170 -102Q170 -126 164 -133T150 -145Z" />
<glyph unicode="}" horiz-adv-x="330" d="M141 -121Q114 -122 94 -110T73 -87Q73 -82 76 -79T79 -76Q84 -80 87 -80T91 -76Q91 -76 101 -71T128 -58Q157 -53 170 -47T188 -29T199 9Q202 21 204 31T207 46Q207 49 208 78T208 147Q206 191 206 211T207 241T215 261Q223
269 224 276T224 294Q216 314 218 330T228 353Q245 372 255 383T273 405T290 435Q316 476 335 516T361 587Q361 591 361 594T361 597Q365 606 363 617T350 643Q342 659 330 667T292 682Q276 685 275 698T282 722Q286 730 297 734T321 739T337 734Q345 726 352 726Q355
726 368 715T396 690T416 666Q420 663 423 647T428 619Q431 607 431 599T430 580T420 549Q406 503 395 473T378 437Q374 434 371 433T367 428Q367 424 358 408T338 374T317 347Q313 343 310 336T306 328Q306 328 305 328T299 324Q292 320 292 313T299 289Q301 280
305 273T313 258Q313 244 308 244Q295 237 289 226T281 192T281 127Q282 106 281 82T279 40T274 15Q267 -15 262 -35T251 -55Q251 -55 249 -55T248 -59Q248 -73 232 -87T191 -110T141 -121Z" />
<glyph unicode="~" horiz-adv-x="446" d="M360 192Q336 192 318 199T279 220Q264 230 249 242T217 257Q202 259 193 251T174 233T151 221Q150 216 144 209T134 204Q117 205 108 216T99 236Q99 242 108 256T137 287T190 317Q217 321 238 317T274 300Q297 282 317
271T355 262Q365 263 380 268T406 279L432 289Q436 291 440 292T448 295Q456 298 466 299Q478 300 486 291T493 270Q493 265 490 258T477 239L456 228Q435 220 418 212T390 200Q370 192 360 192Z" />
<glyph unicode="&#xa0;" horiz-adv-x="242" />
<glyph unicode="&#xa1;" horiz-adv-x="210" d="M26 -232Q26 -232 19 -228T4 -216Q-3 -208 -4 -197T-6 -174Q-4 -154 8 -130T37 -78Q47 -59 56 -42T66 -21Q66 -17 70 -9T79 11Q85 21 91 35T102 61T107 75Q108 79 109 83T114 91Q118 91 118 96T119 102Q119 106 123
120T138 155Q157 208 165 239T175 293Q177 317 184 324T198 335Q227 340 240 310T237 214Q231 202 227 191T223 172Q220 159 213 142T199 109T189 88Q185 88 181 82T176 67Q176 59 173 49T165 35Q165 31 161 25T157 14Q157 10 155 8T152 0Q143 -16 129 -47T100
-114T75 -176T65 -209Q64 -217 60 -223T47 -228Q43 -231 37 -231T26 -232ZM237 402Q205 422 208 447T252 491Q272 499 286 499T316 486Q335 467 329 447T294 407Q275 396 266 396T237 402Z" />
<glyph unicode="&#xa2;" horiz-adv-x="450" d="M214 -54Q186 -60 184 -28T197 59Q206 72 209 84T214 103Q217 113 230 139T258 196T286 250T302 278Q306 278 311 285T317 299Q317 307 320 317T329 330Q329 335 333 341T338 351Q339 354 341 356T344 363Q351 374
364 400T395 460T431 531T464 600T489 654T499 680Q505 696 519 693Q525 699 535 695Q535 695 538 692T549 681Q554 672 555 663T556 642Q554 629 549 620T533 592T501 536Q496 527 484 508T459 468T437 432T427 415Q427 410 411 384Q407 376 399 361T382 330T367
302T360 288Q360 281 351 272Q347 272 346 267T345 261Q345 257 340 244T324 214Q313 186 298 153T268 86T243 27T230 -13Q229 -37 226 -44T214 -54ZM330 178Q317 172 300 173T254 184Q252 184 242 191T222 209T207 227Q191 250 196 295T227 403Q234 418 248 441T277
483T298 506Q298 506 309 510T337 523Q342 525 352 528T374 533T391 534Q411 533 432 520T468 489T477 458Q477 456 472 447T460 429T450 415Q445 409 434 410T414 418T404 437Q402 445 390 452T377 459Q369 459 356 444T328 408Q310 390 301 369T287 328T279 300Q275
290 279 274T288 255Q295 254 311 256T346 262T385 271T418 283Q437 295 451 294T472 291Q483 287 484 276T477 253T451 231Q435 223 423 214T410 199Q406 199 402 197T394 195Q392 195 378 192T350 185T330 178Z" />
<glyph unicode="&#xa3;" horiz-adv-x="450" d="M439 -57Q409 -72 369 -69T296 -44Q293 -41 284 -37T267 -32Q260 -27 244 -26T216 -22Q194 -17 185 -17T160 -22Q133 -31 101 -27T47 -11T24 16Q24 33 34 42T73 54Q105 57 117 59T131 64T138 75Q144 95 150 123T166
208Q169 234 179 277T204 368T240 459Q266 512 293 556T348 629T403 662Q430 670 460 661T508 635Q509 642 518 632T537 607T548 580Q551 570 554 562T558 554Q562 551 562 545T561 535Q560 527 555 517T536 495Q522 488 507 489T481 500T473 531Q475 548 469 567T448
591Q437 596 427 593T395 572Q386 557 379 551T372 544Q372 544 364 530T345 496Q334 474 320 436T291 357T265 281T248 229Q247 219 243 193T233 137T226 84L228 59L264 47Q275 43 286 35T314 25Q328 16 344 12T374 8Q399 8 418 16T439 32Q443 32 446 36T450 46Q455
46 463 49T478 53Q495 53 503 42T509 14T489 -21T439 -57ZM344 280Q340 280 321 280T275 280T220 281T168 282T134 283Q128 283 119 283T99 288Q84 288 77 293T66 307Q55 322 66 329T115 340Q132 343 165 344T238 346T313 346T369 345Q395 345 411 341T438 325Q453
310 447 295T417 283Q410 282 386 282T344 280Z" />
<glyph unicode="&#xa4;" horiz-adv-x="450" d="M136 21Q131 17 126 24T118 41T120 55Q116 60 120 60T126 59Q121 65 125 74T136 94T148 108Q147 112 150 114T155 125Q166 132 178 132Q178 146 183 149T194 156Q199 161 200 167T196 171Q195 173 190 182T179 194Q177
214 177 237T181 277Q184 277 185 290T193 309Q192 313 196 318T204 325Q205 327 207 328T209 335Q209 335 212 341T222 357Q228 373 231 379T234 388T230 400Q211 415 196 437T184 470Q183 472 181 474T177 481Q170 493 173 506T184 526T196 529Q195 529 202 527T215
514Q219 508 223 503T232 492Q237 493 241 482T253 464Q266 446 275 442T285 435Q287 433 290 437T303 447Q312 452 317 452T328 452T347 452L375 450L412 499Q444 540 460 549T483 544Q491 542 495 529T496 510Q495 512 492 504T484 491Q479 481 472 468T461 448Q449
445 448 439T444 428Q444 428 447 423T459 411Q465 409 470 401T478 374Q484 370 487 359T492 337T491 325Q490 324 490 323T487 314Q489 310 481 291T460 249T429 206L410 184L423 170Q428 162 439 150T461 128T478 119Q482 119 483 107T485 83T482 65Q476 57
463 57T433 74Q412 90 396 114T375 146Q377 155 370 153T357 146Q330 134 309 128T271 125Q260 130 257 129T243 118Q242 114 235 105T220 88T205 73Q198 56 190 48T184 34Q182 32 171 27T149 19T136 21ZM314 198Q342 212 369 235T410 289Q419 307 421 329T414
361Q401 379 373 382Q354 384 346 382T323 372Q302 363 293 350T268 309Q246 278 241 250T250 213Q257 204 274 200T314 198Z" />
<glyph unicode="&#xa5;" horiz-adv-x="450" d="M232 678Q249 694 261 684T279 649T284 595Q287 488 298 431T327 359Q339 356 348 361T373 384T419 433Q447 462 475 494T528 557T574 609T607 638Q611 644 619 648T635 654T643 656Q651 654 652 644T660 623Q662
619 667 612T671 600Q671 597 664 589T648 572T635 559Q622 548 595 521T538 462T489 405Q445 354 411 317T368 273Q367 271 355 267T337 254L300 262L265 306Q245 336 233 362T216 426Q209 450 207 471T205 519T207 588Q208 626 218 648T232 678ZM239 -73Q235
-72 224 -65T203 -51Q196 -43 195 -35T197 -12T208 29Q209 52 217 85T238 140Q238 151 243 170T255 209T269 245L287 297L327 331L371 297Q367 291 364 283T356 256T341 197Q333 170 324 139T306 81T292 37Q280 -8 272 -33T256 -67T239 -73ZM151 110Q145 110 136
110T116 115Q101 115 94 120T82 133Q71 148 82 155T131 167Q148 171 183 172T261 174T340 175T398 176Q424 176 440 172T468 157Q483 142 477 127T447 115Q443 115 427 115T391 115T352 115T324 115Q318 115 296 114T246 112T192 111T151 110ZM513 298Q528 283
522 268T492 256Q487 256 474 255T446 253T419 251Q414 251 394 251T345 251T286 250T232 250T196 251Q190 251 181 251T161 256Q146 256 139 261T127 274Q116 289 127 296T176 308Q193 312 228 313T306 316T385 317T443 317Q469 317 485 313T513 298Z" />
<glyph unicode="&#xa6;" horiz-adv-x="330" d="M307 355Q304 345 291 345T263 352T240 368T237 385Q248 411 265 453T302 545T339 639T367 714T378 748Q378 764 394 764Q397 767 401 768T410 769Q410 769 414 765T426 753Q434 746 443 734T452 710Q452 697 449
687T437 658T409 599Q406 591 397 571T378 526T357 478T340 438T333 420Q333 416 330 408T322 388Q319 383 316 375T307 355ZM148 -145Q120 -152 106 -118T104 -28Q109 -16 112 -5T115 14Q117 22 125 49T144 113T167 184T187 242Q188 250 199 249T225 242T247 228T252
213L250 208Q243 186 233 152T212 80T190 5T174 -58T167 -97Q167 -121 162 -131T148 -145Z" />
<glyph unicode="&#xa7;" horiz-adv-x="385" d="M344 184Q306 174 273 185T224 219Q217 233 217 243T224 258Q232 259 238 258T256 252Q271 239 290 239T324 248T342 271Q336 273 332 282T324 303Q256 380 256 432Q252 444 256 460T269 494T286 523Q312 552 346
575T408 612Q419 612 439 611T467 608Q474 606 482 595T497 570T506 545Q506 538 502 524T493 493Q489 482 484 473T479 459Q478 448 468 447T446 452T429 470Q425 485 424 494T426 515Q437 528 437 532T426 534Q419 534 405 526T376 505T349 474Q337 460 334 452T330
436T331 418Q331 409 336 396T347 374T359 363Q359 363 367 350T391 321Q426 263 415 231T344 184ZM250 4Q212 -5 179 4T130 40Q123 53 123 63T130 79Q138 80 147 76T167 67Q182 57 201 58T237 69T256 90Q255 94 249 104T238 125Q205 157 189 193T172 254Q166 272
177 295T204 332Q221 358 242 373T283 405L320 347Q303 338 286 321T255 288Q241 270 241 261T242 235Q242 221 252 203T270 177Q270 177 279 164T302 140Q337 79 323 47T250 4Z" />
<glyph unicode="&#xa8;" horiz-adv-x="353" d="M244 436Q235 444 230 458T226 478Q228 484 235 501T254 529Q258 532 262 537T271 543Q284 553 297 547T320 521Q330 501 326 488T303 451Q285 428 271 426T244 436ZM390 436Q381 444 376 458T372 478Q374 484 381
501T400 529Q404 532 408 537T417 543Q430 553 443 547T466 521Q476 501 472 488T449 451Q431 428 417 426T390 436Z" />
<glyph unicode="&#xa9;" horiz-adv-x="496" d="M353 79Q285 78 239 105T174 186Q162 206 160 222T152 256Q151 258 151 261T149 266Q148 271 148 282T149 305T150 318Q155 321 154 324T152 328Q148 339 154 363T172 415T195 464T211 487Q213 487 213 490T214 494Q218
500 236 512T277 537T315 559Q383 592 439 571T542 484Q547 469 556 456T565 437Q575 422 581 404T589 371T589 353Q591 350 590 346T590 339Q593 335 593 321T591 289T586 258T581 244Q581 244 579 243T579 240Q581 239 576 232T562 218T548 210Q548 210 548 209T551
206Q553 205 543 193T516 165T478 133T440 112Q437 109 436 108T432 104Q425 94 399 86T353 79ZM288 153Q304 140 338 145T413 174Q429 181 449 196T485 227T500 252Q499 257 500 263T506 270Q515 278 520 301T526 350T519 389Q518 391 514 398T510 409Q510 414
508 418T499 435T472 473Q440 498 414 503T370 505T346 498Q302 485 277 461T240 410T222 360Q213 331 210 315T208 288T219 262Q218 249 222 237T225 221Q226 216 236 201T261 171T288 153ZM354 208Q346 204 334 207T299 218Q297 218 291 224T278 237Q267 254
266 287T283 358Q286 369 295 383T314 411T333 435T343 447Q343 447 348 449T371 458Q378 460 385 461T392 463Q405 462 419 454T445 433T463 410T468 391Q467 389 462 383T453 371Q450 365 442 365T425 371T416 385Q402 405 390 404T369 391T356 367Q343 352 339
332T333 302Q331 292 332 281T337 268Q349 264 359 264T385 274T425 302Q433 308 439 301T450 285T460 275Q459 257 444 242T415 222Q411 222 407 221T399 219Q395 219 379 215T354 208Z" />
<glyph unicode="&#xaa;" horiz-adv-x="350" d="M224 317Q209 317 195 326T175 342L173 344L168 354Q167 356 166 357T165 359Q164 362 163 364T160 368H161Q157 374 163 394T181 445T210 506Q215 511 220 518T229 532L234 540V541Q235 543 238 545T243 549L247
560Q249 566 263 582T296 616T327 641Q345 654 365 654T399 642L447 598L480 569L465 525Q462 514 460 505T458 487Q457 465 462 447T476 413Q486 396 508 392Q516 391 522 386T529 372Q529 355 523 347T507 337Q478 333 452 346T405 399Q402 404 397 416T390 434Q387
429 381 423T371 411Q325 363 289 340T224 317ZM237 392Q241 392 254 399T288 423Q315 448 337 470T379 519L398 550Q388 571 381 577T368 583Q357 583 340 566T303 519T259 447Q250 431 244 412T237 392Z" />
<glyph unicode="&#xab;" horiz-adv-x="646" d="M406 -3Q398 -4 379 -4T328 11Q292 30 275 39T242 67Q208 87 190 108T154 160L125 202L118 237Q126 239 134 251T144 264Q153 275 166 287T202 317T259 366Q296 393 309 407T333 431Q339 438 347 445T359 453Q365
455 371 453T382 447Q393 440 403 438T414 427Q414 427 412 414T402 395Q389 384 374 373T337 343T275 289Q251 268 238 254T220 229T217 205Q223 192 237 173T279 132T353 84Q378 72 395 53T417 18T406 -3ZM613 -3Q605 -4 586 -4T535 11Q499 30 482 39T449 67Q415
87 397 108T361 160L332 202L325 237Q333 239 341 251T351 264Q360 275 373 287T408 317T466 366Q503 393 516 407T540 431Q546 438 554 445T566 453Q572 455 578 453T589 447Q600 440 610 438T621 427Q621 427 619 414T609 395Q596 384 581 373T544 343T482 289Q459
268 446 254T427 229T424 205Q430 192 444 173T486 132T560 84Q585 72 602 53T624 18T613 -3Z" />
<glyph unicode="&#xac;" horiz-adv-x="465" d="M478 132Q468 122 456 121T436 126T430 148L425 206L422 245L393 243Q387 243 362 242T303 240T239 239T195 238Q189 238 180 238T160 243Q145 243 140 251T131 267Q120 282 129 288T175 298Q192 302 225 304T298
308T372 311T427 312Q453 312 464 310T487 296Q507 275 495 263Q497 247 497 230T498 192Q498 167 494 155T478 132Z" />
<glyph unicode="&#xad;" horiz-adv-x="326" d="M178 174Q172 174 163 174T143 179Q128 179 121 184T109 197Q98 212 109 219T158 231Q192 239 218 242T285 245Q311 245 325 241T350 226Q365 211 359 196T329 184Q322 183 303 182T266 179Q255 178 231 176T178 174Z" />
<glyph unicode="&#xae;" horiz-adv-x="496" d="M353 79Q285 78 239 105T174 186Q162 206 160 222T152 256Q151 258 151 261T149 266Q148 271 148 282T149 305T150 318Q155 321 154 324T152 328Q148 339 154 363T172 415T195 464T211 487Q213 487 213 490T214 494Q218
500 236 512T277 537T315 559Q383 592 439 571T542 484Q547 469 556 456T565 437Q575 422 581 404T589 371T589 353Q591 350 590 346T590 339Q593 335 593 321T591 289T586 258T581 244Q581 244 579 243T579 240Q581 239 576 232T562 218T548 210Q548 210 548 209T551
206Q553 205 543 193T516 165T478 133T440 112Q437 109 436 108T432 104Q425 94 399 86T353 79ZM314 214Q309 200 299 199T279 203T263 221T259 241Q261 252 266 266T277 297Q277 305 278 312T281 319Q283 328 288 349T316 400Q316 412 317 417T313 428Q310 433
310 437T321 449Q321 455 336 460T373 464Q385 463 391 462T401 457Q415 456 430 447T445 435Q453 428 458 414T464 391Q464 379 463 372T450 351Q443 338 433 326T405 302L393 289Q394 285 401 278T417 265T430 257Q438 259 442 257T444 237Q437 223 428 215T404
217Q392 219 387 223T375 234Q368 240 363 246T342 266Q342 266 341 266T328 268L320 247Q320 243 319 234T314 214ZM288 153Q304 140 338 145T413 174Q429 181 449 196T485 227T500 252Q499 257 500 263T506 270Q515 278 520 301T526 350T519 389Q518 391 514
398T510 409Q510 414 508 418T499 435T472 473Q440 498 414 503T370 505T346 498Q302 485 277 461T240 410T222 360Q213 331 210 315T208 288T219 262Q218 249 222 237T225 221Q226 216 236 201T261 171T288 153ZM348 315Q365 320 371 331T382 351Q385 353 389
357T402 373Q404 377 405 377T406 390Q410 398 403 403Q399 407 396 409T382 415Q381 414 379 412T369 403Q368 399 368 393T361 384Q359 378 355 362T347 331T348 315Z" />
<glyph unicode="&#xaf;" horiz-adv-x="353" d="M299 456Q293 456 284 456T265 460Q250 460 243 465T231 477Q222 492 232 499T279 511Q313 518 338 521T404 524Q428 524 442 520T467 507Q481 492 475 477T446 464Q439 463 419 462T380 460Q370 460 348 458T299 456Z" />
<glyph unicode="&#xb0;" horiz-adv-x="283" d="M335 413Q297 413 273 424T236 452T215 488Q207 503 203 526T197 559Q197 569 202 587T215 626T231 658Q244 682 263 695T297 721Q312 728 321 731T340 735Q376 735 409 719T464 674T485 602Q485 568 478 546T457
507T426 470Q421 464 407 450T374 425T335 413ZM324 486Q337 486 356 498T392 534T407 592Q406 633 392 649T359 666Q319 668 299 637T279 553Q279 539 283 525T297 500T324 486Z" />
<glyph unicode="&#xb1;" horiz-adv-x="446" d="M173 244Q167 244 158 244T138 249Q123 249 116 254T104 267Q93 282 104 289T153 301Q170 305 203 307T276 311T350 314T405 315Q431 315 447 311T475 296Q490 281 484 266T454 254Q449 254 436 253T408 251T381
249Q375 249 348 248T286 246T219 245T173 244ZM173 11Q167 11 158 11T138 16Q123 16 116 21T104 34Q93 49 104 56T153 68Q170 72 203 74T276 78T350 81T405 82Q431 82 447 78T475 63Q490 48 484 33T454 21Q449 21 436 20T408 18T381 16Q375 16 348 15T286 13T219
12T173 11ZM304 130Q289 120 282 131T270 174Q266 189 264 213T260 266T257 320T256 365Q256 388 260 403T274 429Q289 442 305 436T317 410Q318 404 319 382T322 343Q322 339 323 320T325 275T326 228T327 192Q327 187 327 179T322 161Q322 147 317 140T304 130Z"
/>
<glyph unicode="&#xb2;" horiz-adv-x="320" d="M210 339Q205 341 194 352T179 371Q179 375 183 385T192 403T200 412Q201 412 205 418T213 432T218 442L228 450L232 452H230L241 463L251 473H250L266 493Q271 498 273 503T284 518Q301 535 314 550T328 569Q328
569 332 573T340 580L359 597Q362 604 369 611T382 626L396 655Q398 662 398 663T385 669H386Q373 672 359 672Q347 672 337 669T309 655Q305 654 301 653T292 649Q286 646 281 644T267 644Q267 644 267 644T261 651L246 671L235 695L269 711Q297 728 327 739T377
742Q385 741 392 740T399 738Q407 737 419 729T442 710T457 689V690Q462 683 466 670T470 648Q470 635 463 619T443 585Q440 580 427 566T399 533T370 501T351 483Q346 480 336 470T314 449T295 429T288 420L291 418Q291 418 297 420Q312 426 332 430T370 435T394
435Q402 437 420 436T451 429Q452 429 453 428T456 427Q457 426 460 426Q468 423 471 418Q474 412 477 409Q485 402 490 394T494 380T479 372T437 374Q431 374 422 374T408 371Q405 370 400 370T386 369Q385 369 383 369T379 368H373Q361 370 347 367T317 359Q308
356 285 350T239 341T210 339Z" />
<glyph unicode="&#xb3;" horiz-adv-x="320" d="M294 302Q250 302 228 317T206 349Q207 364 216 372T247 378Q272 372 297 373T342 383T376 407Q393 426 393 447Q393 457 392 463T379 477Q367 488 341 497T297 508Q290 506 284 509T267 519Q263 524 260 532T254
544L250 550Q249 558 266 571T327 612L332 614H331L337 618Q365 636 380 645T404 660T420 673H419Q429 687 429 688T418 694Q401 696 392 696T378 692Q374 694 362 692T338 687T326 682Q325 680 315 677T293 673T279 671Q275 673 270 682T260 703T256 720Q259 724
269 731T291 747T311 759Q322 762 342 763T383 766T412 766H413Q448 762 473 742T503 695Q506 679 500 665T472 628L468 624L458 617Q450 611 443 607T423 595L411 587L404 582L396 575L389 570L364 558L403 541Q423 531 437 512T460 481Q465 469 467 459T470 437Q470
409 452 383T404 335Q384 322 352 313T294 302Z" />
<glyph unicode="&#xb4;" horiz-adv-x="353" d="M344 438Q336 444 333 459T331 486Q332 491 344 506T375 540T410 574T439 592Q452 595 463 583T478 550Q479 540 469 529T444 505T412 480T387 454Q377 438 367 434T344 438Z" />
<glyph unicode="&#xb5;" horiz-adv-x="370" d="M66 -186Q56 -185 48 -174T35 -151T30 -133Q30 -121 40 -90T63 -16T90 73T112 162Q117 185 125 213T152 281Q174 324 185 343T200 367Q205 372 211 373T223 374Q239 373 246 365T254 344Q255 331 249 310T234 265T216
219T203 179Q199 161 197 145T197 119T212 107Q221 106 232 112T260 136T295 191Q310 218 319 237T334 280Q336 291 342 306T356 336Q362 355 378 359Q380 361 385 361T398 359Q403 360 407 357T418 340Q420 340 420 337T424 332Q426 328 426 324T427 313Q427 298
421 274T402 218Q383 176 376 156T369 115Q369 78 397 55Q407 48 408 40T410 21Q409 16 401 8T381 -6T355 -10Q341 -7 329 12T310 59Q308 67 308 80T308 101Q306 97 301 90T288 76Q274 63 252 47T210 28Q193 21 180 23T155 38Q153 30 151 22T146 5Q128 -51 117
-85T98 -137T88 -163T82 -175Q77 -181 73 -183T66 -186Z" />
<glyph unicode="&#xb6;" horiz-adv-x="424" d="M181 -52Q169 -41 159 -28T158 -2Q158 1 161 10T169 30Q175 52 184 77T203 125T220 158Q224 168 226 180T233 200Q238 211 244 223T256 243Q260 262 265 276T271 291Q260 293 249 292T209 296Q182 306 166 333T156
409Q166 441 178 474T220 530Q250 552 272 565T316 589T370 612Q378 612 404 613T456 619Q500 616 533 610T584 593T599 567Q598 560 598 555T591 542Q588 537 582 523T568 492T553 464Q549 457 539 433T518 379Q505 354 498 335T491 315Q491 315 487 308T478 292Q477
283 468 260T447 214Q437 189 426 162T413 120Q406 107 398 85T379 44L367 2H330Q325 5 318 7T306 16Q304 24 304 29T308 55Q313 65 317 74T326 88Q331 91 332 99T334 109Q334 117 340 127T349 142Q353 154 355 161T357 168Q357 174 366 190Q370 198 375 210T384
234Q387 242 390 253T398 264Q398 267 400 275T403 291Q408 300 412 311T420 330Q425 337 428 341T431 346Q428 346 432 357T445 385Q449 390 451 403T458 429Q465 443 475 465T496 505Q501 522 504 535T508 552Q506 552 495 554T474 555T459 543Q458 539 452 529T433
497Q425 475 413 451T397 412Q390 397 383 381T369 349Q365 342 358 326T346 292Q342 283 334 264T316 220T297 174T278 138Q275 128 273 118T269 102Q269 97 260 73T240 18T218 -40Q211 -50 205 -53T181 -52Z" />
<glyph unicode="&#xb7;" horiz-adv-x="187" d="M150 238Q145 243 141 255T135 278T136 289Q141 290 149 299T164 319T169 339Q169 349 179 351Q191 359 207 354T234 332Q243 313 239 296T217 256Q202 236 183 232T150 238Z" />
<glyph unicode="&#xb8;" horiz-adv-x="353" d="M160 -188Q145 -191 122 -187T78 -178T51 -170Q39 -166 34 -156T30 -135T41 -118T69 -117Q85 -122 103 -128T137 -134T160 -120Q167 -109 160 -98T142 -75Q135 -66 128 -58T109 -39Q101 -28 99 -15T114 16T179 58L227
30Q202 18 187 7T171 -17Q185 -37 202 -55T224 -94Q230 -118 222 -138T197 -171T160 -188Z" />
<glyph unicode="&#xb9;" horiz-adv-x="320" d="M337 305Q334 306 328 309T317 322T315 352Q314 357 314 364T317 380Q321 400 324 411T328 425Q332 435 338 455T351 497Q354 505 358 520T368 552Q370 563 377 580T387 609Q390 618 393 628T399 647Q394 648 389
645T373 638Q365 632 354 625T331 608Q324 602 316 595T300 581Q283 567 274 562T255 560Q240 561 232 572T224 592Q222 595 226 601T238 616T251 631Q257 635 265 641T279 651Q283 653 287 657T298 666Q302 669 311 677T335 696Q340 701 346 706T361 718Q365 721
369 724T377 730Q397 745 416 754T440 763Q447 768 458 766T479 760T491 751Q492 748 494 741T496 725Q494 718 490 704T480 672T470 637T460 607Q458 599 455 589T448 566T441 542T434 522Q432 517 431 512T429 502Q426 495 424 488T419 466Q412 449 407 429T397
390Q394 380 391 368T384 347Q382 338 380 331T373 320Q370 306 361 303T337 305Z" />
<glyph unicode="&#xba;" horiz-adv-x="283" d="M255 303Q242 303 227 314T200 337Q187 353 184 364T183 394Q185 399 184 405T183 412L185 411Q181 415 181 416T184 420L182 419Q182 420 183 420T184 422L190 424Q190 424 189 427T187 432Q188 439 192 454T202
487T216 518Q221 527 231 543T254 575T276 601Q296 620 318 632T359 649H358Q378 655 386 655T407 640Q424 630 438 610T454 566Q456 540 450 506T412 418Q392 387 371 368T326 332H327Q311 319 294 312T255 303ZM270 374Q279 374 292 382T326 414Q343 435 354
456T375 509Q377 516 378 525T380 542Q380 553 379 561T375 571H376Q368 576 357 574T332 559Q311 538 295 508T261 435Q259 425 257 416T254 400Q254 374 270 374Z" />
<glyph unicode="&#xbb;" horiz-adv-x="708" d="M450 -10Q444 -12 436 -7T423 2Q413 10 403 10T390 19Q390 19 392 27T402 41Q416 53 429 64T464 94T524 148Q559 180 579 201T597 242Q588 262 557 295T456 368Q432 380 413 397T389 429T398 448Q406 449 431 449T488
436Q524 417 541 408T574 380Q608 361 627 339T662 287L686 245L693 215Q688 214 682 207T672 192T667 184Q658 173 644 160T608 127T550 77Q513 50 500 36T476 12Q470 5 463 -2T450 -10ZM236 -10Q230 -12 222 -7T209 2Q199 10 189 10T176 19Q176 19 178 27T188
41Q202 53 215 64T250 94T310 148Q345 180 365 201T383 242Q374 262 343 295T242 368Q218 380 199 397T175 429T184 448Q192 449 217 449T273 436Q309 417 326 408T359 380Q393 361 412 339T447 287L471 245L478 215Q473 214 467 207T457 192T452 184Q443 173 430
160T394 127T336 77Q299 50 286 36T262 12Q256 5 249 -2T236 -10Z" />
<glyph unicode="&#xbc;" horiz-adv-x="800" d="M268 -19Q249 -16 240 -3T235 35T265 94Q273 102 280 109T289 123Q293 129 310 149T349 195T394 246T432 288T450 309Q454 308 459 313T466 325Q469 333 475 339T488 346Q490 351 494 355T499 362Q500 366 503 369T508
375Q517 383 540 405T594 459T659 525T720 590T768 640T788 663Q793 676 808 671Q815 675 824 671Q824 671 830 663T841 645Q846 636 846 628T841 610Q837 599 831 592T810 571T765 531Q759 525 744 510T708 476T669 439T638 409T624 394Q621 392 616 387T604 373Q596
365 579 349T547 318T531 301Q529 298 527 296T518 291Q517 292 515 289T512 286Q512 281 503 270T479 245Q462 226 435 193T380 124T330 60T303 19Q296 0 286 -8T268 -19ZM272 205Q269 206 263 209T252 222T249 252Q249 257 249 264T252 280Q256 300 259 311T263
325Q267 335 273 355T285 397Q289 405 293 420T302 452Q305 464 312 480T322 509Q325 518 327 528T333 547Q328 548 323 545T308 538Q299 532 289 525T266 508Q259 502 251 495T234 481Q218 467 209 462T190 460Q175 461 167 472T158 492Q157 495 161 501T172 516T185
531Q191 535 199 541T213 551Q217 553 223 558T234 567Q237 569 244 576T264 592Q274 600 284 608T306 626Q326 640 345 650T374 663Q381 668 392 666T413 660T426 651Q427 648 429 641T430 625Q428 618 424 604T415 572T404 537T395 507Q392 499 389 489T383 466T376
442T369 422Q367 417 366 412T363 402Q360 395 358 388T353 366Q347 349 341 329T332 290Q329 280 325 268T319 247Q317 238 314 231T308 220Q304 206 295 203T272 205ZM705 -46Q698 -39 696 -24T699 18Q702 42 709 71Q711 80 712 85T715 97Q722 113 725 123T728
134Q725 133 720 132T706 126Q693 123 686 122T668 121Q649 121 634 129T611 150Q607 155 603 166T598 189T601 206V205L607 221L614 240Q616 246 618 251T620 255Q620 255 620 257T622 260Q624 264 624 268Q627 276 639 295T666 338T694 381T713 407L714 408Q719
411 728 415T745 420T757 416Q765 407 767 392T767 373Q766 369 761 360T750 343L743 337L740 334H741Q725 309 708 279T676 220Q671 205 669 197T667 187H666Q672 186 680 187T708 195Q722 198 730 199T745 204Q749 204 753 205T757 209H761Q761 212 761 217T762
224L769 243L781 267Q785 275 789 285T801 309L822 365Q830 385 836 388T848 391Q853 391 860 388T868 374V378Q873 371 880 361T884 340Q882 333 880 327T875 315L872 306L866 293Q862 288 862 285T859 278Q848 251 832 213T803 139T783 83Q768 34 764 16T766
-13Q767 -31 754 -43T726 -57T705 -45V-46Z" />
<glyph unicode="&#xbd;" horiz-adv-x="800" d="M237 -19Q219 -16 210 -3T205 35T235 94Q243 102 249 109T258 123Q263 129 280 149T319 195T364 246T402 288T419 309Q423 308 428 313T435 325Q438 333 445 339T457 346Q459 351 463 355T468 363Q469 366 472 368T477
375Q486 383 509 405T564 459T628 525T690 590T737 640T758 663Q763 676 777 671Q784 675 793 671Q793 671 799 663T810 645Q816 636 816 628T811 610Q806 599 800 592T779 571T734 531Q728 525 713 510T677 476T638 439T607 409T594 394Q591 392 586 387T573 373Q565
365 548 349T516 318T501 301Q499 298 497 296T488 291Q486 292 484 289T482 285Q482 281 473 270T448 245Q432 226 405 193T350 124T300 60T273 19Q265 0 255 -8T237 -19ZM272 205Q269 206 263 209T252 222T249 252Q249 257 249 264T252 280Q256 300 259 311T263
325Q267 335 273 355T285 397Q289 405 293 420T302 452Q305 464 312 480T322 509Q325 518 327 528T333 547Q328 548 323 545T308 538Q299 532 289 525T266 508Q259 502 251 495T234 481Q218 467 209 462T190 460Q175 461 167 472T158 492Q157 495 161 501T172 516T185
531Q191 535 199 541T213 551Q217 553 223 558T234 567Q237 569 244 576T264 592Q274 600 284 608T306 626Q326 640 345 650T374 663Q381 668 392 666T413 660T426 651Q427 648 429 641T430 625Q428 618 424 604T415 572T404 537T395 507Q392 499 389 489T383 466T376
442T369 422Q367 417 366 412T363 402Q360 395 358 388T353 366Q347 349 341 329T332 290Q329 280 325 268T319 247Q317 238 314 231T308 220Q304 206 295 203T272 205ZM544 -11Q539 -9 528 2T513 21Q513 25 517 35T526 53T534 62Q535 62 539 68T547 82T552 92L562
100L566 102H564L575 113L585 123H584L600 143Q605 148 607 153T618 168Q635 185 648 200T662 219Q662 219 666 223T674 230L693 247Q696 254 703 261T716 276L730 305Q732 312 732 313T719 319H720Q707 322 693 322Q681 322 671 319T643 305Q639 304 635 303T626
299Q620 296 615 294T601 294Q601 294 601 294T595 301L580 321L569 345L603 361Q631 378 661 389T711 392Q719 391 726 390T733 388Q741 387 753 379T776 360T791 339V340Q796 333 800 320T804 298Q804 285 797 269T777 235Q774 230 761 216T733 183T704 151T685
133Q680 130 670 120T648 99T629 79T622 70L625 68Q625 68 631 70Q646 76 666 80T704 85T728 85Q736 87 754 86T785 79Q786 79 787 78T790 77Q791 76 794 76Q802 73 805 68Q808 62 811 59Q819 52 824 44T828 30T813 22T771 24Q765 24 756 24T742 21Q739 20 734
20T720 19Q719 19 717 19T713 18H707Q695 20 681 17T651 9Q642 6 619 0T573 -9T544 -11Z" />
<glyph unicode="&#xbe;" horiz-adv-x="800" d="M279 -19Q260 -16 251 -3T246 35T276 94Q285 102 291 109T300 123Q305 129 321 149T361 195T406 246T443 288T461 309Q465 308 470 313T477 325Q480 333 486 339T499 346Q501 351 505 355T510 362Q511 366 514 369T519
375Q528 383 551 405T606 459T670 525T732 590T779 640T799 663Q804 676 819 671Q826 675 835 671Q835 671 841 663T852 645Q858 636 858 628T852 610Q848 599 842 592T821 571T776 531Q770 525 755 510T719 476T680 439T649 409T636 394Q632 392 627 387T615 373Q607
365 590 349T558 318T543 301Q541 298 538 296T529 291Q528 292 526 289T523 286Q523 281 515 270T490 245Q474 226 447 193T391 124T341 60T314 19Q307 0 297 -8T279 -19ZM227 203Q183 203 161 218T139 250Q140 265 149 273T180 279Q205 273 229 274T275 284T309
308Q326 327 326 348Q326 358 325 364T312 378Q300 389 274 398T230 409Q223 407 217 409T200 419Q196 424 193 433T187 445L183 451Q182 459 199 472T260 512L265 514H264L270 518Q298 536 313 545T337 561T352 574H351Q361 588 361 589T350 595Q333 597 324 597T311
593Q307 595 295 593T271 588T259 583Q258 581 247 578T225 574T212 572Q208 573 203 583T193 604T189 621Q192 625 201 632T223 647T244 659Q255 662 275 663T316 666T345 666H346Q381 662 406 643T435 596Q438 580 432 566T404 528L400 524L390 517Q382 511 375
508T356 496L344 488L337 483L329 476L322 471L296 458L335 442Q355 432 369 413T392 382Q397 370 399 360T402 338Q402 310 384 284T336 236Q316 223 285 214T227 203ZM685 -46Q678 -39 676 -24T679 18Q682 42 689 71Q691 80 692 85T695 97Q702 113 705 123T708
134Q705 133 700 132T686 126Q673 123 666 122T648 121Q629 121 614 129T591 150Q587 155 583 166T578 189T581 206V205L587 221L594 240Q596 246 598 251T600 255Q600 255 600 257T602 260Q604 264 604 268Q607 276 619 295T646 338T674 381T693 407L694 408Q699
411 708 415T725 420T737 416Q745 407 747 392T747 373Q746 369 741 360T730 343L723 337L720 334H721Q705 309 688 279T656 220Q651 205 649 197T647 187H646Q652 186 660 187T688 195Q702 198 710 199T725 204Q729 204 733 205T737 209H741Q741 212 741 217T742
224L749 243L761 267Q765 275 769 285T781 309L802 365Q810 385 816 388T828 391Q833 391 840 388T848 374V378Q853 371 860 361T864 340Q862 333 860 327T855 315L852 306L846 293Q842 288 842 285T839 278Q828 251 812 213T783 139T763 83Q748 34 744 16T746
-13Q747 -31 734 -43T706 -57T685 -45V-46Z" />
<glyph unicode="&#xbf;" horiz-adv-x="374" d="M145 -226Q139 -225 132 -225T124 -222Q121 -222 112 -222T95 -222Q83 -218 68 -210T38 -192T17 -174Q10 -152 11 -120T21 -51T44 17T79 72Q85 78 101 92T135 123T163 151Q198 170 223 208T262 282Q273 306 283 312T306
319Q322 318 329 306T336 282Q336 281 337 272T337 255Q337 249 331 236T318 205Q307 186 285 161T245 123Q236 116 232 114T228 111Q228 107 214 96T190 80Q190 80 178 71T157 55Q135 32 124 13T107 -31T93 -94Q92 -128 95 -138T110 -158Q134 -164 159 -157T207
-130T245 -76Q251 -59 251 -53T249 -37Q249 -29 247 -20T244 -5Q249 -4 260 -2T284 1T307 -9Q307 -9 313 -17T322 -30Q328 -38 328 -45T327 -68Q321 -88 309 -112T278 -159T233 -195Q212 -204 195 -213T178 -223Q178 -223 171 -223T145 -226ZM317 408Q284 429 288
453T331 498Q351 506 365 505T395 492Q414 473 408 454T373 414Q355 402 346 402T317 408Z" />
<glyph unicode="&#xc0;" horiz-adv-x="502" d="M317 -33Q299 -23 298 -11T311 31T358 124Q382 169 391 194T403 231T406 245Q404 254 408 259T421 269Q426 274 441 287T467 318Q476 339 488 361T519 416T570 504Q590 539 616 580T670 658Q681 672 692 680T712
688Q731 688 750 678T786 652T808 621Q813 613 812 587T808 524T801 445Q798 404 792 348T781 231T772 114T772 15Q773 6 772 -2T771 -15Q765 -21 747 -21T712 -14T693 1Q690 4 690 7T690 28T692 90L697 246L684 245Q675 245 651 243T599 238T548 231T515 224Q506
224 494 212T470 181Q466 167 456 152T445 131Q438 126 434 119T430 112Q430 106 421 83T398 31T370 -19L345 -55L317 -33ZM545 304Q545 304 556 306T582 310T609 313Q638 320 655 323T681 326T696 324Q700 319 703 318T707 317Q708 319 710 338T717 387T725 447T731
506T735 549Q736 568 735 583T734 599Q728 599 711 577T671 520T627 443Q617 424 609 412T595 399Q593 397 584 383T565 352T549 320T545 304ZM546 706Q537 701 533 706T527 723T518 744Q508 763 494 784T473 826T475 858Q494 877 505 880T526 872Q533 868 542
850T561 810T577 769T583 744Q584 740 572 726T546 706Z" />
<glyph unicode="&#xc1;" horiz-adv-x="502" d="M317 -33Q299 -23 298 -11T311 31T358 124Q382 169 391 194T403 231T406 245Q404 254 408 259T421 269Q426 274 441 287T467 318Q476 339 488 361T519 416T570 504Q590 539 616 580T670 658Q681 672 692 680T712
688Q731 688 750 678T786 652T808 621Q813 613 812 587T808 524T801 445Q798 404 792 348T781 231T772 114T772 15Q773 6 772 -2T771 -15Q765 -21 747 -21T712 -14T693 1Q690 4 690 7T690 28T692 90L697 246L684 245Q675 245 651 243T599 238T548 231T515 224Q506
224 494 212T470 181Q466 167 456 152T445 131Q438 126 434 119T430 112Q430 106 421 83T398 31T370 -19L345 -55L317 -33ZM545 304Q545 304 556 306T582 310T609 313Q638 320 655 323T681 326T696 324Q700 319 703 318T707 317Q708 319 710 338T717 387T725 447T731
506T735 549Q736 568 735 583T734 599Q728 599 711 577T671 520T627 443Q617 424 609 412T595 399Q593 397 584 383T565 352T549 320T545 304ZM481 714Q474 721 471 732T468 762Q469 767 481 782T511 816T546 849T573 868Q585 873 598 860T615 826Q617 818 607
806T579 780T546 753T521 728Q511 712 502 709T481 714Z" />
<glyph unicode="&#xc2;" horiz-adv-x="502" d="M317 -33Q299 -23 298 -11T311 31T358 124Q382 169 391 194T403 231T406 245Q404 254 408 259T421 269Q426 274 441 287T467 318Q476 339 488 361T519 416T570 504Q590 539 616 580T670 658Q681 672 692 680T712
688Q731 688 750 678T786 652T808 621Q813 613 812 587T808 524T801 445Q798 404 792 348T781 231T772 114T772 15Q773 6 772 -2T771 -15Q765 -21 747 -21T712 -14T693 1Q690 4 690 7T690 28T692 90L697 246L684 245Q675 245 651 243T599 238T548 231T515 224Q506
224 494 212T470 181Q466 167 456 152T445 131Q438 126 434 119T430 112Q430 106 421 83T398 31T370 -19L345 -55L317 -33ZM545 304Q545 304 556 306T582 310T609 313Q638 320 655 323T681 326T696 324Q700 319 703 318T707 317Q708 319 710 338T717 387T725 447T731
506T735 549Q736 568 735 583T734 599Q728 599 711 577T671 520T627 443Q617 424 609 412T595 399Q593 397 584 383T565 352T549 320T545 304ZM685 728Q668 711 655 715T637 735T643 764Q646 768 658 779T686 804T718 831T744 849Q756 859 767 857T785 846Q797
836 814 820T847 787T868 763Q874 752 872 740T860 721T839 714T814 733Q807 740 792 755T761 784Q749 777 734 766T705 745T685 728Z" />
<glyph unicode="&#xc3;" horiz-adv-x="502" d="M317 -33Q299 -23 298 -11T311 31T358 124Q382 169 391 194T403 231T406 245Q404 254 408 259T421 269Q426 274 441 287T467 318Q476 339 488 361T519 416T570 504Q590 539 616 580T670 658Q681 672 692 680T712
688Q731 688 750 678T786 652T808 621Q813 613 812 587T808 524T801 445Q798 404 792 348T781 231T772 114T772 15Q773 6 772 -2T771 -15Q765 -21 747 -21T712 -14T693 1Q690 4 690 7T690 28T692 90L697 246L684 245Q675 245 651 243T599 238T548 231T515 224Q506
224 494 212T470 181Q466 167 456 152T445 131Q438 126 434 119T430 112Q430 106 421 83T398 31T370 -19L345 -55L317 -33ZM545 304Q545 304 556 306T582 310T609 313Q638 320 655 323T681 326T696 324Q700 319 703 318T707 317Q708 319 710 338T717 387T725 447T731
506T735 549Q736 568 735 583T734 599Q728 599 711 577T671 520T627 443Q617 424 609 412T595 399Q593 397 584 383T565 352T549 320T545 304ZM571 727Q555 727 540 735T507 757Q498 762 484 776T458 790Q448 790 442 782T430 766T413 756Q410 749 406 743T396
741Q386 743 380 750T372 773Q377 791 393 812T437 848Q463 855 481 848T516 825Q540 805 552 800T584 803Q599 807 614 816T651 834Q658 837 665 832T676 817T679 802Q679 792 671 782T653 767Q623 750 607 741T583 730T571 727Z" />
<glyph unicode="&#xc4;" horiz-adv-x="502" d="M317 -33Q299 -23 298 -11T311 31T358 124Q382 169 391 194T403 231T406 245Q404 254 408 259T421 269Q426 274 441 287T467 318Q476 339 488 361T519 416T570 504Q590 539 616 580T670 658Q681 672 692 680T712
688Q731 688 750 678T786 652T808 621Q813 613 812 587T808 524T801 445Q798 404 792 348T781 231T772 114T772 15Q773 6 772 -2T771 -15Q765 -21 747 -21T712 -14T693 1Q690 4 690 7T690 28T692 90L697 246L684 245Q675 245 651 243T599 238T548 231T515 224Q506
224 494 212T470 181Q466 167 456 152T445 131Q438 126 434 119T430 112Q430 106 421 83T398 31T370 -19L345 -55L317 -33ZM545 304Q545 304 556 306T582 310T609 313Q638 320 655 323T681 326T696 324Q700 319 703 318T707 317Q708 319 710 338T717 387T725 447T731
506T735 549Q736 568 735 583T734 599Q728 599 711 577T671 520T627 443Q617 424 609 412T595 399Q593 397 584 383T565 352T549 320T545 304ZM574 747Q567 754 562 768T558 786Q560 791 566 806T577 827Q581 832 590 841T603 851Q614 862 628 856T649 834Q665
814 660 797T636 760Q618 732 602 732T574 747ZM435 741Q423 750 417 764T413 785Q415 796 424 814T440 839Q443 841 448 845T459 853Q470 861 480 857T498 843T509 822Q517 809 512 795T492 763Q476 742 463 736T435 741Z" />
<glyph unicode="&#xc5;" horiz-adv-x="502" d="M317 -33Q299 -23 298 -11T311 31T358 124Q382 169 391 194T403 231T406 245Q404 254 408 259T421 269Q426 274 441 287T467 318Q476 339 488 361T519 416T570 504Q590 539 616 580T670 658Q681 672 692 680T712
688Q731 688 750 678T786 652T808 621Q813 613 812 587T808 524T801 445Q798 404 792 348T781 231T772 114T772 15Q773 6 772 -2T771 -15Q765 -21 747 -21T712 -14T693 1Q690 4 690 7T690 28T692 90L697 246L684 245Q675 245 651 243T599 238T548 231T515 224Q506
224 494 212T470 181Q466 167 456 152T445 131Q438 126 434 119T430 112Q430 106 421 83T398 31T370 -19L345 -55L317 -33ZM545 304Q545 304 556 306T582 310T609 313Q638 320 655 323T681 326T696 324Q700 319 703 318T707 317Q708 319 710 338T717 387T725 447T731
506T735 549Q736 568 735 583T734 599Q728 599 711 577T671 520T627 443Q617 424 609 412T595 399Q593 397 584 383T565 352T549 320T545 304ZM529 687Q495 687 479 706T457 759Q456 787 466 811T494 852T534 868Q574 867 594 850T615 803Q614 771 603 745T573
703T529 687ZM529 739Q547 739 555 750T564 779Q563 793 559 804T538 814Q505 813 506 771Q506 761 513 750T529 739Z" />
<glyph unicode="&#xc6;" horiz-adv-x="784" d="M557 -49Q517 -49 492 -44T440 -18Q420 -3 410 20T400 73T406 135Q409 156 414 174T423 204H411Q391 202 355 204T268 209L251 188Q245 181 234 164T211 126Q201 107 185 81T150 32Q129 1 119 -7T104 -16Q93 -16
87 -14T72 -4Q54 6 56 25T83 73Q89 80 93 87T98 94Q101 100 111 117T135 155T159 191T176 209Q198 230 180 248Q173 251 174 262T185 284T213 292Q221 296 227 298T233 303Q234 307 241 319T258 346T278 376T297 399Q312 427 318 436T330 455Q336 460 348 477T372
510Q388 524 400 540T423 567Q429 578 439 590T463 616Q485 637 501 641T532 642Q546 640 571 635T624 621Q648 631 680 638T734 647Q740 651 761 653T809 655T860 653Q882 653 895 647T921 634Q937 621 938 611T935 596T931 591Q929 589 918 587T886 585T829 584Q812
584 792 581T754 575T730 572Q718 568 703 567T684 566Q682 566 674 554T657 524T640 493T633 475Q633 465 625 452T605 422Q595 409 593 397T600 380Q616 383 637 386T679 391T715 393Q738 397 755 397T779 392Q791 390 795 381T796 362T783 349Q777 344 756 337T705
322T645 308T591 297T560 293Q552 302 547 292T528 235Q517 210 510 193T499 157T489 107Q484 88 489 67T527 30Q547 26 574 27T644 39Q662 50 678 58T701 71Q706 71 716 74T731 78Q736 83 741 86T753 90Q755 90 764 78T781 53T789 37Q789 27 758 12T676 -23Q651
-34 635 -40T603 -47T557 -49ZM321 278Q321 278 338 280T383 282Q402 284 419 284T449 283Q451 290 455 296T461 308Q464 312 466 322T469 335Q469 335 472 342T479 360Q485 371 488 378T493 390Q497 395 503 405T513 426Q535 467 549 490T570 532Q557 538 542
539T506 538Q503 541 492 532T467 508T441 478T424 455Q420 450 405 428T373 382Q345 343 333 322T318 291T321 278Z" />
<glyph unicode="&#xc7;" horiz-adv-x="482" d="M472 -63Q457 -57 439 -48T404 -22T377 18Q367 47 364 75T361 140Q361 192 368 230T392 309Q394 312 399 326T412 358T424 384Q432 401 448 429T484 485Q513 528 532 554T570 599T610 635T666 675Q688 691 720 694T781
683T826 635Q837 614 836 583T825 518T798 453T760 403Q747 391 730 397T698 417Q689 434 689 437T692 441Q698 448 708 465T728 501T742 533Q750 575 753 590T747 614Q743 618 736 617T711 607Q688 597 655 565T590 491Q550 438 523 397T482 313Q480 309 476 298T471
287Q472 283 468 268T459 241Q448 195 446 150T451 72T474 23Q487 14 508 17T556 31T613 55Q637 65 657 77T687 98Q695 104 707 110T729 117Q743 122 748 113T753 88Q753 74 735 55T692 22Q684 14 671 7T644 -6Q623 -22 592 -37T530 -60T472 -63ZM237 -4Q222 -7
199 -3T155 6T128 14Q116 18 111 28T107 49T118 66T146 67Q162 62 180 56T214 50T237 64Q244 75 237 86T219 109Q212 118 205 126T186 145Q178 156 176 169T191 200T256 242L304 214Q279 202 264 191T248 167Q262 147 279 129T301 90Q307 66 299 46T274 13T237
-4Z" />
<glyph unicode="&#xc8;" horiz-adv-x="548" d="M489 -34Q458 -32 430 -13T375 25Q358 42 349 61T334 113Q330 132 334 162T347 223T364 272Q376 300 394 332T431 394T461 442Q468 449 468 449T467 450Q467 455 477 475T496 512Q511 528 513 538T510 554Q508 558
518 570T546 597T588 626Q612 645 634 646T661 637Q661 634 672 635T699 640T727 646Q732 652 750 655T794 662Q807 661 822 661T848 663T859 664Q866 666 878 658T898 631Q905 613 889 602T831 585Q801 581 783 579T744 573T689 561Q664 556 648 552T619 537T591
504Q584 499 573 478T551 436Q523 397 507 375T495 348Q495 348 508 345T525 342Q535 347 549 349T573 353Q635 369 666 377T712 388T737 393Q751 404 765 394T786 367Q793 350 787 340T758 323T693 305T586 277Q531 261 496 258T462 275Q455 279 447 267T431 234T418
189T411 144T414 112Q422 89 438 74T488 48Q508 47 527 45T570 53Q629 63 655 74T687 89Q695 93 697 96T705 99Q702 94 707 98T723 113Q741 128 761 133T795 139T810 133Q816 123 806 103T772 60T715 18Q662 -10 600 -21T489 -34ZM568 706Q559 701 555 706T549
723T540 744Q530 763 516 784T495 826T497 858Q516 877 527 880T548 872Q555 868 564 850T583 810T599 769T605 744Q606 740 594 726T568 706Z" />
<glyph unicode="&#xc9;" horiz-adv-x="548" d="M489 -34Q458 -32 430 -13T375 25Q358 42 349 61T334 113Q330 132 334 162T347 223T364 272Q376 300 394 332T431 394T461 442Q468 449 468 449T467 450Q467 455 477 475T496 512Q511 528 513 538T510 554Q508 558
518 570T546 597T588 626Q612 645 634 646T661 637Q661 634 672 635T699 640T727 646Q732 652 750 655T794 662Q807 661 822 661T848 663T859 664Q866 666 878 658T898 631Q905 613 889 602T831 585Q801 581 783 579T744 573T689 561Q664 556 648 552T619 537T591
504Q584 499 573 478T551 436Q523 397 507 375T495 348Q495 348 508 345T525 342Q535 347 549 349T573 353Q635 369 666 377T712 388T737 393Q751 404 765 394T786 367Q793 350 787 340T758 323T693 305T586 277Q531 261 496 258T462 275Q455 279 447 267T431 234T418
189T411 144T414 112Q422 89 438 74T488 48Q508 47 527 45T570 53Q629 63 655 74T687 89Q695 93 697 96T705 99Q702 94 707 98T723 113Q741 128 761 133T795 139T810 133Q816 123 806 103T772 60T715 18Q662 -10 600 -21T489 -34ZM503 714Q496 721 493 732T490
762Q491 767 503 782T533 816T568 849T595 868Q607 873 620 860T637 826Q639 818 629 806T601 780T568 753T543 728Q533 712 524 709T503 714Z" />
<glyph unicode="&#xca;" horiz-adv-x="548" d="M489 -34Q458 -32 430 -13T375 25Q358 42 349 61T334 113Q330 132 334 162T347 223T364 272Q376 300 394 332T431 394T461 442Q468 449 468 449T467 450Q467 455 477 475T496 512Q511 528 513 538T510 554Q508 558
518 570T546 597T588 626Q612 645 634 646T661 637Q661 634 672 635T699 640T727 646Q732 652 750 655T794 662Q807 661 822 661T848 663T859 664Q866 666 878 658T898 631Q905 613 889 602T831 585Q801 581 783 579T744 573T689 561Q664 556 648 552T619 537T591
504Q584 499 573 478T551 436Q523 397 507 375T495 348Q495 348 508 345T525 342Q535 347 549 349T573 353Q635 369 666 377T712 388T737 393Q751 404 765 394T786 367Q793 350 787 340T758 323T693 305T586 277Q531 261 496 258T462 275Q455 279 447 267T431 234T418
189T411 144T414 112Q422 89 438 74T488 48Q508 47 527 45T570 53Q629 63 655 74T687 89Q695 93 697 96T705 99Q702 94 707 98T723 113Q741 128 761 133T795 139T810 133Q816 123 806 103T772 60T715 18Q662 -10 600 -21T489 -34ZM491 728Q474 711 461 715T443
735T449 764Q452 768 464 779T492 804T524 831T550 849Q562 859 573 857T591 846Q603 836 620 820T653 787T674 763Q680 752 678 740T666 721T645 714T620 733Q613 740 598 755T567 784Q555 777 540 766T511 745T491 728Z" />
<glyph unicode="&#xcb;" horiz-adv-x="548" d="M489 -34Q458 -32 430 -13T375 25Q358 42 349 61T334 113Q330 132 334 162T347 223T364 272Q376 300 394 332T431 394T461 442Q468 449 468 449T467 450Q467 455 477 475T496 512Q511 528 513 538T510 554Q508 558
518 570T546 597T588 626Q612 645 634 646T661 637Q661 634 672 635T699 640T727 646Q732 652 750 655T794 662Q807 661 822 661T848 663T859 664Q866 666 878 658T898 631Q905 613 889 602T831 585Q801 581 783 579T744 573T689 561Q664 556 648 552T619 537T591
504Q584 499 573 478T551 436Q523 397 507 375T495 348Q495 348 508 345T525 342Q535 347 549 349T573 353Q635 369 666 377T712 388T737 393Q751 404 765 394T786 367Q793 350 787 340T758 323T693 305T586 277Q531 261 496 258T462 275Q455 279 447 267T431 234T418
189T411 144T414 112Q422 89 438 74T488 48Q508 47 527 45T570 53Q629 63 655 74T687 89Q695 93 697 96T705 99Q702 94 707 98T723 113Q741 128 761 133T795 139T810 133Q816 123 806 103T772 60T715 18Q662 -10 600 -21T489 -34ZM596 747Q589 754 584 768T580
786Q582 791 588 806T599 827Q603 832 612 841T625 851Q636 862 650 856T671 834Q687 814 682 797T658 760Q640 732 624 732T596 747ZM457 741Q445 750 439 764T435 785Q437 796 446 814T462 839Q465 841 470 845T481 853Q492 861 502 857T520 843T531 822Q539
809 534 795T514 763Q498 742 485 736T457 741Z" />
<glyph unicode="&#xcc;" horiz-adv-x="400" d="M438 -38Q431 -27 412 -24T357 -23Q343 -25 329 -21T306 -10T299 7Q300 19 324 30T392 43L438 44L448 64Q452 75 455 90T466 129Q470 143 478 167T495 220T511 270T520 302Q524 311 531 332T544 376T553 409Q579
488 587 520T591 553Q587 553 572 552T538 550T506 546T489 542Q484 535 472 543T457 561Q456 570 457 577T463 587Q470 593 491 600T539 614T589 623Q606 625 623 630T650 644Q659 647 667 649T685 650Q693 645 712 645T754 646Q810 651 831 645T860 624Q865 605
860 593T837 582Q828 580 810 579T765 576Q697 570 692 562Q688 558 686 554T679 545Q680 541 675 521T661 479Q657 466 649 442T633 393T617 347T607 319Q603 310 601 300T597 284Q583 235 573 202T556 144T542 96T528 45Q528 45 544 46T587 50Q634 55 652 56T674
54T682 41Q702 14 682 -1T606 -16Q554 -18 529 -19T495 -24T486 -34Q486 -47 470 -49T438 -38ZM723 706Q714 701 710 706T704 723T695 744Q685 763 671 784T650 826T652 858Q671 877 682 880T703 872Q710 868 719 850T738 810T754 769T760 744Q761 740 749 726T723
706Z" />
<glyph unicode="&#xcd;" horiz-adv-x="400" d="M438 -38Q431 -27 412 -24T357 -23Q343 -25 329 -21T306 -10T299 7Q300 19 324 30T392 43L438 44L448 64Q452 75 455 90T466 129Q470 143 478 167T495 220T511 270T520 302Q524 311 531 332T544 376T553 409Q579
488 587 520T591 553Q587 553 572 552T538 550T506 546T489 542Q484 535 472 543T457 561Q456 570 457 577T463 587Q470 593 491 600T539 614T589 623Q606 625 623 630T650 644Q659 647 667 649T685 650Q693 645 712 645T754 646Q810 651 831 645T860 624Q865 605
860 593T837 582Q828 580 810 579T765 576Q697 570 692 562Q688 558 686 554T679 545Q680 541 675 521T661 479Q657 466 649 442T633 393T617 347T607 319Q603 310 601 300T597 284Q583 235 573 202T556 144T542 96T528 45Q528 45 544 46T587 50Q634 55 652 56T674
54T682 41Q702 14 682 -1T606 -16Q554 -18 529 -19T495 -24T486 -34Q486 -47 470 -49T438 -38ZM658 714Q651 721 648 732T645 762Q646 767 658 782T688 816T723 849T750 868Q762 873 775 860T792 826Q794 818 784 806T756 780T723 753T698 728Q688 712 679 709T658
714Z" />
<glyph unicode="&#xce;" horiz-adv-x="400" d="M438 -38Q431 -27 412 -24T357 -23Q343 -25 329 -21T306 -10T299 7Q300 19 324 30T392 43L438 44L448 64Q452 75 455 90T466 129Q470 143 478 167T495 220T511 270T520 302Q524 311 531 332T544 376T553 409Q579
488 587 520T591 553Q587 553 572 552T538 550T506 546T489 542Q484 535 472 543T457 561Q456 570 457 577T463 587Q470 593 491 600T539 614T589 623Q606 625 623 630T650 644Q659 647 667 649T685 650Q693 645 712 645T754 646Q810 651 831 645T860 624Q865 605
860 593T837 582Q828 580 810 579T765 576Q697 570 692 562Q688 558 686 554T679 545Q680 541 675 521T661 479Q657 466 649 442T633 393T617 347T607 319Q603 310 601 300T597 284Q583 235 573 202T556 144T542 96T528 45Q528 45 544 46T587 50Q634 55 652 56T674
54T682 41Q702 14 682 -1T606 -16Q554 -18 529 -19T495 -24T486 -34Q486 -47 470 -49T438 -38ZM646 728Q629 711 616 715T598 735T604 764Q607 768 619 779T647 804T679 831T705 849Q717 859 728 857T746 846Q758 836 775 820T808 787T829 763Q835 752 833 740T821
721T800 714T775 733Q768 740 753 755T722 784Q710 777 695 766T666 745T646 728Z" />
<glyph unicode="&#xcf;" horiz-adv-x="406" d="M185 -38Q178 -27 159 -24T104 -23Q90 -25 76 -21T53 -10T46 7Q47 19 71 30T139 43L185 44L195 64Q199 75 202 90T213 129Q217 143 225 167T242 220T258 270T267 302Q271 311 278 332T291 376T300 409Q326 488 334
520T338 553Q334 553 319 552T285 550T253 546T236 542Q231 535 219 543T204 561Q203 570 204 577T210 587Q217 593 238 600T286 614T336 623Q353 625 370 630T397 644Q406 647 414 649T432 650Q440 645 459 645T501 646Q557 651 578 645T607 624Q612 605 607 593T584
582Q575 580 557 579T512 576Q444 570 439 562Q435 558 433 554T426 545Q427 541 422 521T408 479Q404 466 396 442T380 393T364 347T354 319Q350 310 348 300T344 284Q330 235 320 202T303 144T289 96T275 45Q275 45 291 46T334 50Q381 55 399 56T421 54T429 41Q449
14 429 -1T353 -16Q301 -18 276 -19T242 -24T233 -34Q233 -47 217 -49T185 -38ZM751 747Q744 754 739 768T735 786Q737 791 743 806T754 827Q758 832 767 841T780 851Q791 862 805 856T826 834Q842 814 837 797T813 760Q795 732 779 732T751 747ZM612 741Q600 750
594 764T590 785Q592 796 601 814T617 839Q620 841 625 845T636 853Q647 861 657 857T675 843T686 822Q694 809 689 795T669 763Q653 742 640 736T612 741Z" />
<glyph unicode="&#xd0;" horiz-adv-x="578" d="M224 -101Q203 -105 177 -104T111 -91Q101 -87 92 -77T75 -54T64 -28Q59 -3 66 9T86 21Q99 20 110 11T128 -7Q147 -17 165 -22T205 -27Q225 -25 245 -22T282 -15T308 -4Q361 32 390 54T419 76Q421 80 426 82T440
88Q446 94 459 107T485 134T501 149Q503 158 505 163T507 175Q515 183 528 209T556 266T576 324Q590 391 584 437T556 516T502 577Q489 587 470 597T433 614T400 626T383 629Q380 628 370 603T345 538T313 451T279 357H288Q314 355 325 351T347 339Q360 324 355
310T325 297Q318 296 302 295T270 293Q268 293 265 293T258 293Q251 271 245 252T238 227Q227 210 217 178T198 80Q189 46 185 25T177 5L175 -1Q175 -7 163 -9T137 -9T117 0Q114 11 109 26T111 67Q115 89 124 119T143 182T163 242T176 282Q177 283 177 285T179
289H170Q167 289 160 289T144 293Q129 293 122 298T109 312Q101 327 113 333T159 344Q169 346 179 348T198 351Q199 353 199 355T200 358Q208 382 216 407T231 451T243 478Q248 491 256 521T281 590L288 622L277 627Q268 624 261 624T250 627Q244 626 236 630T221
640T209 653Q205 660 204 667T203 675Q204 683 225 690T280 703T352 709Q387 707 422 697T484 676Q518 664 554 635T618 568T657 490Q662 471 665 447T668 402T664 375Q662 371 662 366T665 358Q664 355 658 336T647 302Q644 276 634 245T610 187T587 142Q583 142
580 141T580 138Q580 132 576 127T565 114Q561 111 555 102T543 89Q542 82 537 78T528 73Q528 73 527 73T525 69Q517 57 499 39T458 2T412 -33T368 -58Q358 -65 347 -69T326 -79Q321 -83 303 -87T263 -94T224 -101Z" />
<glyph unicode="&#xd1;" horiz-adv-x="566" d="M359 -77Q342 -66 337 -54T332 -26T339 9Q347 41 356 62T375 107T392 168Q408 205 420 238T440 292T447 313Q448 317 456 334T475 375T498 425Q515 473 528 506T556 567T588 622Q600 643 620 647T658 645T683 617Q688
607 691 594T698 554T702 480Q704 423 704 373T707 281T719 205Q722 187 726 162T734 111T743 70T752 53Q757 53 764 63T783 103T813 192T855 350Q860 367 868 405T881 482Q888 507 895 537T907 590T913 616Q913 623 913 628T913 638Q918 638 922 651T926 675Q926
692 930 702T940 718Q948 734 963 734T993 725T1010 703Q1012 692 1005 654T982 550Q982 539 976 514T964 461T954 413Q950 387 945 365T935 343Q909 230 881 151T830 21Q806 -34 772 -48T705 -21Q686 5 674 30T654 89T639 175Q630 217 627 258T623 342T624 433Q625
487 620 499T606 491T581 430Q574 410 564 384T544 333T526 289T517 265Q511 253 503 234T490 192Q454 98 437 35T411 -51Q401 -79 392 -86T359 -77ZM802 727Q786 727 771 735T738 757Q729 762 715 776T689 790Q679 790 673 782T661 766T644 756Q641 749 637 743T627
741Q617 743 611 750T603 773Q608 791 624 812T668 848Q694 855 712 848T747 825Q771 805 783 800T815 803Q830 807 845 816T882 834Q889 837 896 832T907 817T910 802Q910 792 902 782T884 767Q854 750 838 741T814 730T802 727Z" />
<glyph unicode="&#xd2;" horiz-adv-x="496" d="M436 -30Q399 -3 382 18T362 61Q360 79 362 110T369 171T376 216Q381 221 381 229T380 238Q379 243 387 264T402 320Q422 380 440 420T477 490T513 543Q554 585 586 609T650 647Q670 659 687 666T715 668Q771 656
806 620T855 514Q862 470 863 435T858 365T833 289T781 193Q742 116 695 63T601 -19T510 -51T436 -30ZM511 24Q534 27 550 34T585 60T633 112Q659 142 676 163T705 205T728 257T754 336Q762 366 765 382T770 410T771 442T770 498Q769 515 763 535T749 565Q739 576
720 583T678 580Q666 575 648 559T610 521T573 477T545 438T534 413Q534 413 534 408T529 398Q516 384 502 351T475 275T454 190T443 115Q442 95 442 85T445 67T455 47Q461 37 478 29T511 24ZM541 706Q532 701 528 706T522 723T513 744Q503 763 489 784T468 826T470
858Q489 877 500 880T521 872Q528 868 537 850T556 810T572 769T578 744Q579 740 567 726T541 706Z" />
<glyph unicode="&#xd3;" horiz-adv-x="496" d="M436 -30Q399 -3 382 18T362 61Q360 79 362 110T369 171T376 216Q381 221 381 229T380 238Q379 243 387 264T402 320Q422 380 440 420T477 490T513 543Q554 585 586 609T650 647Q670 659 687 666T715 668Q771 656
806 620T855 514Q862 470 863 435T858 365T833 289T781 193Q742 116 695 63T601 -19T510 -51T436 -30ZM511 24Q534 27 550 34T585 60T633 112Q659 142 676 163T705 205T728 257T754 336Q762 366 765 382T770 410T771 442T770 498Q769 515 763 535T749 565Q739 576
720 583T678 580Q666 575 648 559T610 521T573 477T545 438T534 413Q534 413 534 408T529 398Q516 384 502 351T475 275T454 190T443 115Q442 95 442 85T445 67T455 47Q461 37 478 29T511 24ZM476 714Q469 721 466 732T463 762Q464 767 476 782T506 816T541 849T568
868Q580 873 593 860T610 826Q612 818 602 806T574 780T541 753T516 728Q506 712 497 709T476 714Z" />
<glyph unicode="&#xd4;" horiz-adv-x="496" d="M436 -30Q399 -3 382 18T362 61Q360 79 362 110T369 171T376 216Q381 221 381 229T380 238Q379 243 387 264T402 320Q422 380 440 420T477 490T513 543Q554 585 586 609T650 647Q670 659 687 666T715 668Q771 656
806 620T855 514Q862 470 863 435T858 365T833 289T781 193Q742 116 695 63T601 -19T510 -51T436 -30ZM511 24Q534 27 550 34T585 60T633 112Q659 142 676 163T705 205T728 257T754 336Q762 366 765 382T770 410T771 442T770 498Q769 515 763 535T749 565Q739 576
720 583T678 580Q666 575 648 559T610 521T573 477T545 438T534 413Q534 413 534 408T529 398Q516 384 502 351T475 275T454 190T443 115Q442 95 442 85T445 67T455 47Q461 37 478 29T511 24ZM464 728Q447 711 434 715T416 735T422 764Q425 768 437 779T465 804T497
831T523 849Q535 859 546 857T564 846Q576 836 593 820T626 787T647 763Q653 752 651 740T639 721T618 714T593 733Q586 740 571 755T540 784Q528 777 513 766T484 745T464 728Z" />
<glyph unicode="&#xd5;" horiz-adv-x="496" d="M436 -30Q399 -3 382 18T362 61Q360 79 362 110T369 171T376 216Q381 221 381 229T380 238Q379 243 387 264T402 320Q422 380 440 420T477 490T513 543Q554 585 586 609T650 647Q670 659 687 666T715 668Q771 656
806 620T855 514Q862 470 863 435T858 365T833 289T781 193Q742 116 695 63T601 -19T510 -51T436 -30ZM511 24Q534 27 550 34T585 60T633 112Q659 142 676 163T705 205T728 257T754 336Q762 366 765 382T770 410T771 442T770 498Q769 515 763 535T749 565Q739 576
720 583T678 580Q666 575 648 559T610 521T573 477T545 438T534 413Q534 413 534 408T529 398Q516 384 502 351T475 275T454 190T443 115Q442 95 442 85T445 67T455 47Q461 37 478 29T511 24ZM822 727Q806 727 791 735T758 757Q749 762 735 776T709 790Q699 790
693 782T681 766T664 756Q661 749 657 743T647 741Q637 743 631 750T623 773Q628 791 644 812T688 848Q714 855 732 848T767 825Q791 805 803 800T835 803Q850 807 865 816T902 834Q909 837 916 832T927 817T930 802Q930 792 922 782T904 767Q874 750 858 741T834
730T822 727Z" />
<glyph unicode="&#xd6;" horiz-adv-x="496" d="M436 -30Q399 -3 382 18T362 61Q360 79 362 110T369 171T376 216Q381 221 381 229T380 238Q379 243 387 264T402 320Q422 380 440 420T477 490T513 543Q554 585 586 609T650 647Q670 659 687 666T715 668Q771 656
806 620T855 514Q862 470 863 435T858 365T833 289T781 193Q742 116 695 63T601 -19T510 -51T436 -30ZM511 24Q534 27 550 34T585 60T633 112Q659 142 676 163T705 205T728 257T754 336Q762 366 765 382T770 410T771 442T770 498Q769 515 763 535T749 565Q739 576
720 583T678 580Q666 575 648 559T610 521T573 477T545 438T534 413Q534 413 534 408T529 398Q516 384 502 351T475 275T454 190T443 115Q442 95 442 85T445 67T455 47Q461 37 478 29T511 24ZM825 747Q818 754 813 768T809 786Q811 791 817 806T828 827Q832 832
841 841T854 851Q865 862 879 856T900 834Q916 814 911 797T887 760Q869 732 853 732T825 747ZM686 741Q674 750 668 764T664 785Q666 796 675 814T691 839Q694 841 699 845T710 853Q721 861 731 857T749 843T760 822Q768 809 763 795T743 763Q727 742 714 736T686
741Z" />
<glyph unicode="&#xd7;" horiz-adv-x="446" d="M440 77Q438 59 424 62T381 88Q370 95 350 112T306 151T257 196T212 239T179 270Q161 288 153 302T143 333Q143 354 159 360T188 348Q193 344 211 328T243 300Q246 297 261 283T298 248T341 207T381 168T408 142Q412
138 418 132T429 114Q440 104 441 95T440 77ZM160 61Q142 63 145 77T171 119Q179 131 195 151T234 195T279 244T322 289T353 321Q371 339 385 348T416 357Q437 357 443 342T431 313Q427 307 411 289T383 257Q380 254 366 239T331 203T290 159T251 119T225 93Q221
89 215 83T197 72Q187 61 178 60T160 61Z" />
<glyph unicode="&#xd8;" horiz-adv-x="496" d="M125 -91Q105 -90 95 -76T92 -31T130 46Q138 57 144 66T153 83Q157 89 172 113T210 170T257 240T304 309T341 363T357 387Q361 386 366 391T373 404Q376 412 382 420T393 430Q395 435 399 440T405 450Q406 454 409
457T414 464Q424 474 444 498T487 552T532 611T568 661T585 687Q590 702 606 696Q609 698 620 698T636 697Q636 697 638 693T646 677Q652 667 651 655T645 632Q641 619 633 610T609 586T563 539Q548 522 535 510T522 493Q520 489 518 486T508 472Q502 466 490 452T466
423T445 396T436 382Q434 379 433 375T425 369Q422 371 420 366T417 360Q417 356 409 344T386 314Q375 298 355 268T308 199T255 119T205 42T166 -19T147 -54Q140 -76 137 -82T125 -91ZM176 -30Q139 -3 122 18T102 61Q100 79 102 110T109 171T116 216Q121 221 121
229T120 238Q119 243 127 264T142 320Q162 380 180 420T217 490T253 543Q294 585 326 609T390 647Q410 659 427 666T455 668Q511 656 546 620T595 514Q602 470 603 435T598 365T573 289T521 193Q482 116 435 63T341 -19T250 -51T176 -30ZM251 24Q274 27 290 34T325
60T373 112Q399 142 416 163T445 205T469 257T494 336Q502 366 505 382T510 410T511 442T510 498Q509 515 503 535T489 565Q479 576 460 583T419 580Q407 575 389 559T351 521T314 477T286 438T275 413Q275 413 275 408T270 398Q257 384 243 351T215 275T194 190T183
115Q183 95 183 85T186 67T196 47Q202 37 219 29T251 24Z" />
<glyph unicode="&#xd9;" horiz-adv-x="482" d="M226 -57Q176 -42 150 -4T121 102T140 275Q147 310 160 355T190 447T227 539T266 618Q289 659 304 672T334 683Q356 678 367 664T378 632T359 604Q348 591 331 557T295 490Q275 432 260 388T235 304T217 222Q208
180 204 156T198 119T196 95T195 71Q203 58 208 48T221 36Q238 28 257 29T297 43Q302 53 310 57T318 61Q320 56 322 58T326 65Q325 69 328 72T335 80Q343 83 356 98T383 132T406 167T416 187Q416 192 420 196T429 206Q434 211 449 238T483 303T517 371Q520 382
528 406T545 463T564 527T580 585T590 623Q592 636 596 644T601 657Q610 664 621 660T644 650T661 641Q667 633 666 621T660 585T644 514Q623 432 594 363T530 217Q530 217 530 217T530 211Q518 204 511 190Q506 181 503 175T494 165Q491 156 488 149T485 142Q484
137 478 133T466 125Q461 123 460 117T456 107Q434 74 403 41T340 -16T281 -51Q263 -58 252 -59T226 -57ZM782 706Q773 701 769 706T763 723T754 744Q744 763 730 784T709 826T711 858Q730 877 741 880T762 872Q769 868 778 850T797 810T813 769T819 744Q820 740
808 726T782 706Z" />
<glyph unicode="&#xda;" horiz-adv-x="482" d="M226 -57Q176 -42 150 -4T121 102T140 275Q147 310 160 355T190 447T227 539T266 618Q289 659 304 672T334 683Q356 678 367 664T378 632T359 604Q348 591 331 557T295 490Q275 432 260 388T235 304T217 222Q208
180 204 156T198 119T196 95T195 71Q203 58 208 48T221 36Q238 28 257 29T297 43Q302 53 310 57T318 61Q320 56 322 58T326 65Q325 69 328 72T335 80Q343 83 356 98T383 132T406 167T416 187Q416 192 420 196T429 206Q434 211 449 238T483 303T517 371Q520 382
528 406T545 463T564 527T580 585T590 623Q592 636 596 644T601 657Q610 664 621 660T644 650T661 641Q667 633 666 621T660 585T644 514Q623 432 594 363T530 217Q530 217 530 217T530 211Q518 204 511 190Q506 181 503 175T494 165Q491 156 488 149T485 142Q484
137 478 133T466 125Q461 123 460 117T456 107Q434 74 403 41T340 -16T281 -51Q263 -58 252 -59T226 -57ZM717 714Q710 721 707 732T704 762Q705 767 717 782T747 816T782 849T809 868Q821 873 834 860T851 826Q853 818 843 806T815 780T782 753T757 728Q747 712
738 709T717 714Z" />
<glyph unicode="&#xdb;" horiz-adv-x="482" d="M226 -57Q176 -42 150 -4T121 102T140 275Q147 310 160 355T190 447T227 539T266 618Q289 659 304 672T334 683Q356 678 367 664T378 632T359 604Q348 591 331 557T295 490Q275 432 260 388T235 304T217 222Q208
180 204 156T198 119T196 95T195 71Q203 58 208 48T221 36Q238 28 257 29T297 43Q302 53 310 57T318 61Q320 56 322 58T326 65Q325 69 328 72T335 80Q343 83 356 98T383 132T406 167T416 187Q416 192 420 196T429 206Q434 211 449 238T483 303T517 371Q520 382
528 406T545 463T564 527T580 585T590 623Q592 636 596 644T601 657Q610 664 621 660T644 650T661 641Q667 633 666 621T660 585T644 514Q623 432 594 363T530 217Q530 217 530 217T530 211Q518 204 511 190Q506 181 503 175T494 165Q491 156 488 149T485 142Q484
137 478 133T466 125Q461 123 460 117T456 107Q434 74 403 41T340 -16T281 -51Q263 -58 252 -59T226 -57ZM705 728Q688 711 675 715T657 735T663 764Q666 768 678 779T706 804T738 831T764 849Q776 859 787 857T805 846Q817 836 834 820T867 787T888 763Q894 752
892 740T880 721T859 714T834 733Q827 740 812 755T781 784Q769 777 754 766T725 745T705 728Z" />
<glyph unicode="&#xdc;" horiz-adv-x="482" d="M226 -57Q176 -42 150 -4T121 102T140 275Q147 310 160 355T190 447T227 539T266 618Q289 659 304 672T334 683Q356 678 367 664T378 632T359 604Q348 591 331 557T295 490Q275 432 260 388T235 304T217 222Q208
180 204 156T198 119T196 95T195 71Q203 58 208 48T221 36Q238 28 257 29T297 43Q302 53 310 57T318 61Q320 56 322 58T326 65Q325 69 328 72T335 80Q343 83 356 98T383 132T406 167T416 187Q416 192 420 196T429 206Q434 211 449 238T483 303T517 371Q520 382
528 406T545 463T564 527T580 585T590 623Q592 636 596 644T601 657Q610 664 621 660T644 650T661 641Q667 633 666 621T660 585T644 514Q623 432 594 363T530 217Q530 217 530 217T530 211Q518 204 511 190Q506 181 503 175T494 165Q491 156 488 149T485 142Q484
137 478 133T466 125Q461 123 460 117T456 107Q434 74 403 41T340 -16T281 -51Q263 -58 252 -59T226 -57ZM810 747Q803 754 798 768T794 786Q796 791 802 806T813 827Q817 832 826 841T839 851Q850 862 864 856T885 834Q901 814 896 797T872 760Q854 732 838 732T810
747ZM671 741Q659 750 653 764T649 785Q651 796 660 814T676 839Q679 841 684 845T695 853Q706 861 716 857T734 843T745 822Q753 809 748 795T728 763Q712 742 699 736T671 741Z" />
<glyph unicode="&#xdd;" horiz-adv-x="504" d="M319 262L284 306Q264 336 252 362T235 426Q228 450 226 471T224 519T226 588Q227 626 237 648T251 678Q268 694 280 684T298 649T303 595Q306 488 317 431T347 359Q358 356 367 361T393 384T438 433Q466 462 494
494T547 557T593 609T626 638Q630 644 638 648T654 654T662 656Q670 654 671 644T679 623Q681 619 686 612T690 600Q690 597 683 589T667 572T654 559Q641 548 614 521T557 462T508 405Q464 354 430 317T387 273Q386 271 374 267T356 254L319 262ZM258 -73Q254
-72 243 -65T222 -51Q215 -43 214 -35T216 -12T227 29Q228 52 236 85T257 140Q257 151 262 170T274 209T288 245L306 297L346 331L390 297Q386 291 383 283T375 256T360 197Q352 170 343 139T325 81T311 37Q299 -8 291 -33T276 -67T258 -73ZM714 715Q707 722 704
733T701 763Q702 768 714 783T744 817T779 850T806 869Q818 874 831 861T848 827Q850 819 840 807T812 781T779 754T754 729Q744 713 735 710T714 715Z" />
<glyph unicode="&#xde;" horiz-adv-x="472" d="M121 -79Q116 -76 106 -73T87 -63T77 -48Q76 -45 76 -40T78 -22T87 15Q88 18 94 40T110 92T128 152T143 200T151 216Q152 221 157 237T167 257Q168 266 172 280T183 308T196 327Q196 333 201 347T213 376T226 403T233
414Q233 414 234 420T246 439Q246 439 247 449T257 465Q261 480 262 485T259 493Q250 519 275 520Q281 520 289 537Q291 541 293 542Q306 576 318 609T337 665T345 693Q345 701 357 705T378 709Q381 712 385 713T394 714L410 698Q418 691 419 682T421 661Q421 649
419 641T410 618T386 567Q400 569 409 571T419 573Q433 573 455 571T491 566Q527 549 548 519T572 466Q574 454 569 429T554 376T534 326T514 297Q519 298 510 286T488 262T467 247Q467 247 460 235T440 215Q428 208 415 199T393 177Q393 185 388 183T377 175T367
167Q322 140 280 132Q275 128 265 127T244 126L210 131L192 84Q185 53 177 28T162 -27Q159 -45 151 -58T135 -77T121 -79ZM241 204Q292 203 324 220T385 265Q392 272 405 287T432 319T457 350Q471 370 478 395T485 443T480 474Q469 492 448 495T403 493T361 477Q356
475 345 456T319 407T291 345T265 282T246 231T241 204Z" />
<glyph unicode="&#xdf;" horiz-adv-x="398" d="M79 -224Q63 -220 48 -205T29 -173Q31 -171 30 -157T29 -139Q34 -130 35 -114T36 -76Q42 -61 43 -49T45 -32Q45 -32 49 -15T59 26T71 73T82 109Q85 123 89 139T97 162Q102 176 107 192T123 237Q122 245 127 263T141
302T160 338Q165 369 175 391T186 414Q190 410 190 410T186 414Q183 418 183 425T185 439Q197 446 199 453T202 461Q202 463 213 478T239 514T271 555T296 586Q316 605 341 623T386 647Q399 650 413 651T437 652T448 653Q453 654 466 646T494 627T514 604Q528 568
521 523T482 436Q470 417 458 407T445 397Q445 397 437 389T423 367Q413 358 407 350T398 341Q395 341 390 333T381 316T380 300Q380 300 378 297T375 294Q368 294 371 282T382 256T394 232Q401 231 408 218T423 183Q425 156 427 144T430 114Q427 85 412 63T375
29T326 14Q300 10 287 13T251 24Q223 35 210 54T207 93Q209 97 212 98T216 98Q224 98 225 98T227 99Q227 99 235 99T257 98Q272 97 279 94T292 91T304 100Q315 102 322 102T330 103Q331 103 331 112Q330 113 331 113Q331 113 340 120T346 137Q345 151 343 162T327
190Q319 213 307 232T286 264T275 278Q270 284 273 294T278 310Q280 316 282 318T284 321Q284 322 295 337T323 371T352 408T368 430Q385 441 401 456T417 475Q412 489 431 513Q445 536 449 549T447 576Q431 586 407 577T357 539Q350 531 338 517T324 502Q310 484
291 451T253 378T222 303Q226 296 220 281T204 258Q206 244 205 233T204 221Q204 214 201 209T198 204Q193 204 192 204T191 203Q191 203 188 189T177 155Q167 127 162 113T155 83T148 38Q135 -2 129 -29T118 -79Q117 -83 117 -92T119 -108Q117 -115 115 -130T110
-161T108 -190Q108 -209 102 -217T79 -224Z" />
<glyph unicode="&#xe0;" horiz-adv-x="437" d="M371 26Q367 34 356 41T345 52Q345 56 342 63T335 74Q330 80 337 103T360 159T394 227Q402 235 410 248T422 265Q422 269 425 272T432 276L438 289Q439 293 449 305T474 331T504 359T529 378Q550 392 572 392T611
380Q614 377 623 369T645 350T667 331L704 298L687 248Q674 208 680 178T699 126Q704 115 715 108T740 98Q748 97 755 92T762 76Q762 57 755 48T738 37Q705 33 676 47T622 107Q618 113 612 129T604 151Q600 146 592 137T578 121Q507 49 456 27T371 26ZM420 100Q425
97 442 105T484 133Q518 162 544 186T591 241L613 277Q603 300 594 307T577 315Q564 315 544 296T499 243T446 161Q434 140 427 120T420 100ZM386 431Q374 421 368 424T356 450Q351 464 340 482T319 518T304 551T306 577Q314 586 325 595T351 598Q359 595 369 580T388
543T405 501T416 466Q417 463 412 456T399 441T386 431Z" />
<glyph unicode="&#xe1;" horiz-adv-x="437" d="M371 26Q367 34 356 41T345 52Q345 56 342 63T335 74Q330 80 337 103T360 159T394 227Q402 235 410 248T422 265Q422 269 425 272T432 276L438 289Q439 293 449 305T474 331T504 359T529 378Q550 392 572 392T611
380Q614 377 623 369T645 350T667 331L704 298L687 248Q674 208 680 178T699 126Q704 115 715 108T740 98Q748 97 755 92T762 76Q762 57 755 48T738 37Q705 33 676 47T622 107Q618 113 612 129T604 151Q600 146 592 137T578 121Q507 49 456 27T371 26ZM420 100Q425
97 442 105T484 133Q518 162 544 186T591 241L613 277Q603 300 594 307T577 315Q564 315 544 296T499 243T446 161Q434 140 427 120T420 100ZM386 438Q378 444 375 459T373 486Q374 491 386 506T417 540T452 574T481 592Q494 595 505 583T520 550Q521 540 511 529T486
505T454 480T429 454Q419 438 409 434T386 438Z" />
<glyph unicode="&#xe2;" horiz-adv-x="437" d="M371 26Q367 34 356 41T345 52Q345 56 342 63T335 74Q330 80 337 103T360 159T394 227Q402 235 410 248T422 265Q422 269 425 272T432 276L438 289Q439 293 449 305T474 331T504 359T529 378Q550 392 572 392T611
380Q614 377 623 369T645 350T667 331L704 298L687 248Q674 208 680 178T699 126Q704 115 715 108T740 98Q748 97 755 92T762 76Q762 57 755 48T738 37Q705 33 676 47T622 107Q618 113 612 129T604 151Q600 146 592 137T578 121Q507 49 456 27T371 26ZM420 100Q425
97 442 105T484 133Q518 162 544 186T591 241L613 277Q603 300 594 307T577 315Q564 315 544 296T499 243T446 161Q434 140 427 120T420 100ZM304 446Q287 429 274 434T256 454T263 483Q266 487 277 498T304 522T336 548T362 566Q376 577 387 575T405 564Q417 554
434 537T467 504T484 486Q494 475 493 462T483 440T462 432T435 449Q428 458 412 473T381 502Q369 495 353 484T324 463T304 446Z" />
<glyph unicode="&#xe3;" horiz-adv-x="437" d="M371 26Q367 34 356 41T345 52Q345 56 342 63T335 74Q330 80 337 103T360 159T394 227Q402 235 410 248T422 265Q422 269 425 272T432 276L438 289Q439 293 449 305T474 331T504 359T529 378Q550 392 572 392T611
380Q614 377 623 369T645 350T667 331L704 298L687 248Q674 208 680 178T699 126Q704 115 715 108T740 98Q748 97 755 92T762 76Q762 57 755 48T738 37Q705 33 676 47T622 107Q618 113 612 129T604 151Q600 146 592 137T578 121Q507 49 456 27T371 26ZM420 100Q425
97 442 105T484 133Q518 162 544 186T591 241L613 277Q603 300 594 307T577 315Q564 315 544 296T499 243T446 161Q434 140 427 120T420 100ZM431 420Q411 420 399 427T367 448Q358 453 343 468T316 483Q306 483 300 475T287 459T270 448Q269 443 264 436T257 433Q244
436 237 445T230 464Q231 473 246 498T295 541Q307 546 328 544T366 526Q389 505 404 496T438 494Q453 498 471 509T510 528Q517 531 523 526T534 511T537 496Q537 492 532 480T511 460Q481 443 465 435T442 423T431 420Z" />
<glyph unicode="&#xe4;" horiz-adv-x="437" d="M371 26Q367 34 356 41T345 52Q345 56 342 63T335 74Q330 80 337 103T360 159T394 227Q402 235 410 248T422 265Q422 269 425 272T432 276L438 289Q439 293 449 305T474 331T504 359T529 378Q550 392 572 392T611
380Q614 377 623 369T645 350T667 331L704 298L687 248Q674 208 680 178T699 126Q704 115 715 108T740 98Q748 97 755 92T762 76Q762 57 755 48T738 37Q705 33 676 47T622 107Q618 113 612 129T604 151Q600 146 592 137T578 121Q507 49 456 27T371 26ZM420 100Q425
97 442 105T484 133Q518 162 544 186T591 241L613 277Q603 300 594 307T577 315Q564 315 544 296T499 243T446 161Q434 140 427 120T420 100ZM288 436Q279 444 274 458T270 478Q272 484 279 501T298 529Q302 532 306 537T315 543Q328 553 341 547T364 521Q374 501
370 488T347 451Q329 428 315 426T288 436ZM434 436Q425 444 420 458T416 478Q418 484 425 501T444 529Q448 532 452 537T461 543Q474 553 487 547T510 521Q520 501 516 488T493 451Q475 428 461 426T434 436Z" />
<glyph unicode="&#xe5;" horiz-adv-x="437" d="M371 26Q367 34 356 41T345 52Q345 56 342 63T335 74Q330 80 337 103T360 159T394 227Q402 235 410 248T422 265Q422 269 425 272T432 276L438 289Q439 293 449 305T474 331T504 359T529 378Q550 392 572 392T611
380Q614 377 623 369T645 350T667 331L704 298L687 248Q674 208 680 178T699 126Q704 115 715 108T740 98Q748 97 755 92T762 76Q762 57 755 48T738 37Q705 33 676 47T622 107Q618 113 612 129T604 151Q600 146 592 137T578 121Q507 49 456 27T371 26ZM420 100Q425
97 442 105T484 133Q518 162 544 186T591 241L613 277Q603 300 594 307T577 315Q564 315 544 296T499 243T446 161Q434 140 427 120T420 100ZM406 404Q369 404 353 426T332 480Q332 501 341 525T368 567T408 585Q443 585 467 569T491 521Q491 494 481 467T452 422T406
404ZM404 456Q421 456 430 466T440 498Q439 510 436 520T416 531Q382 531 382 486Q382 478 389 467T404 456Z" />
<glyph unicode="&#xe6;" horiz-adv-x="574" d="M113 25Q106 34 95 41T84 52Q84 56 82 62T74 75Q70 81 76 102T97 156T137 231Q147 240 154 256T168 272Q168 275 170 278T174 282L175 285Q177 294 186 305T209 329T235 353T259 370Q282 385 296 389T323 392T348
381Q353 378 364 368T388 347T411 326L443 298L426 245Q423 222 415 204T395 160L365 98L355 120Q352 125 348 135T343 151Q339 146 328 133T311 114Q262 66 225 43T160 17T113 25ZM159 101Q161 97 176 102T213 124Q234 143 258 163T303 206T336 251L352 277Q342
300 333 307T316 315Q303 315 281 294T233 238T186 160Q176 140 168 121T159 101ZM526 22Q496 5 465 5T408 16T367 49Q347 77 345 107T345 178Q349 219 371 260T424 333T484 378Q504 390 521 391T558 391Q583 389 599 381T623 362Q637 348 641 335T646 312T646
291Q638 264 612 232T548 185Q526 178 505 178T457 186Q435 192 427 185T416 147Q415 115 424 99T451 80Q464 77 476 77T501 84Q516 90 523 95T536 106T549 118Q554 123 559 125T569 128Q576 128 585 120T598 101Q600 93 590 78T562 48T526 22ZM518 244Q527 246
541 257T566 281T577 300Q577 312 565 320T529 325Q517 322 504 312T479 289T460 266T451 252Q454 247 466 244T493 241T518 244Z" />
<glyph unicode="&#xe7;" horiz-adv-x="355" d="M470 1Q441 -4 414 5T370 37T353 91Q350 121 359 161T386 243T427 314Q447 338 467 358T503 385Q517 391 535 394T561 397Q577 393 596 384T615 362Q615 362 617 360T620 357Q626 357 632 343T642 311T639 282Q635
263 624 247T605 230Q601 230 598 230T594 224Q594 219 585 219T567 223T555 236Q555 241 557 250T564 279Q570 307 565 316T539 317Q514 303 496 283T463 227T433 133Q427 110 430 96T437 80Q451 76 470 78T500 87Q516 95 531 106T561 128Q566 131 571 139T584
151Q592 163 602 164T625 165Q633 163 641 156T653 143T651 134Q647 134 647 132T646 129Q648 124 638 111T611 82T581 55T560 44Q550 44 550 38Q550 36 536 28T503 12T470 1ZM193 -188Q178 -191 155 -187T111 -178T84 -170Q72 -166 67 -156T63 -135T74 -118T102
-117Q118 -122 136 -128T170 -134T193 -120Q200 -109 193 -98T175 -75Q168 -66 161 -58T142 -39Q134 -28 132 -15T147 16T212 58L260 30Q235 18 220 7T204 -17Q218 -37 235 -55T257 -94Q263 -118 255 -138T230 -171T193 -188Z" />
<glyph unicode="&#xe8;" horiz-adv-x="325" d="M540 25Q513 8 482 5T422 13T377 49Q364 65 357 93T354 170Q359 213 381 257T436 336T505 384Q520 390 533 391T569 391Q592 388 608 381T632 363Q647 347 652 333T657 304Q652 275 628 240T562 186Q543 179 519
178T463 186Q441 192 434 182T426 139Q426 115 433 100T459 81Q481 77 491 78T517 88Q528 95 534 99T546 109T559 119Q565 124 569 126T579 128Q588 127 596 118T607 102Q611 97 603 83T578 54T540 25ZM531 244Q540 248 553 258T576 281T586 301Q586 313 572 321T534
324Q525 322 513 312T490 290T470 267T461 251Q465 246 477 244T505 241T531 244ZM584 431Q572 421 566 424T554 450Q549 464 538 482T517 518T502 551T504 577Q512 586 523 595T549 598Q557 595 567 580T586 543T603 501T614 466Q615 463 610 456T597 441T584
431Z" />
<glyph unicode="&#xe9;" horiz-adv-x="325" d="M540 25Q513 8 482 5T422 13T377 49Q364 65 357 93T354 170Q359 213 381 257T436 336T505 384Q520 390 533 391T569 391Q592 388 608 381T632 363Q647 347 652 333T657 304Q652 275 628 240T562 186Q543 179 519
178T463 186Q441 192 434 182T426 139Q426 115 433 100T459 81Q481 77 491 78T517 88Q528 95 534 99T546 109T559 119Q565 124 569 126T579 128Q588 127 596 118T607 102Q611 97 603 83T578 54T540 25ZM531 244Q540 248 553 258T576 281T586 301Q586 313 572 321T534
324Q525 322 513 312T490 290T470 267T461 251Q465 246 477 244T505 241T531 244ZM584 438Q576 444 573 459T571 486Q572 491 584 506T615 540T650 574T679 592Q692 595 703 583T718 550Q719 540 709 529T684 505T652 480T627 454Q617 438 607 434T584 438Z" />
<glyph unicode="&#xea;" horiz-adv-x="325" d="M540 25Q513 8 482 5T422 13T377 49Q364 65 357 93T354 170Q359 213 381 257T436 336T505 384Q520 390 533 391T569 391Q592 388 608 381T632 363Q647 347 652 333T657 304Q652 275 628 240T562 186Q543 179 519
178T463 186Q441 192 434 182T426 139Q426 115 433 100T459 81Q481 77 491 78T517 88Q528 95 534 99T546 109T559 119Q565 124 569 126T579 128Q588 127 596 118T607 102Q611 97 603 83T578 54T540 25ZM531 244Q540 248 553 258T576 281T586 301Q586 313 572 321T534
324Q525 322 513 312T490 290T470 267T461 251Q465 246 477 244T505 241T531 244ZM502 446Q485 429 472 434T454 454T461 483Q464 487 475 498T502 522T534 548T560 566Q574 577 585 575T603 564Q615 554 632 537T665 504T682 486Q692 475 691 462T681 440T660
432T633 449Q626 458 610 473T579 502Q567 495 551 484T522 463T502 446Z" />
<glyph unicode="&#xeb;" horiz-adv-x="325" d="M540 25Q513 8 482 5T422 13T377 49Q364 65 357 93T354 170Q359 213 381 257T436 336T505 384Q520 390 533 391T569 391Q592 388 608 381T632 363Q647 347 652 333T657 304Q652 275 628 240T562 186Q543 179 519
178T463 186Q441 192 434 182T426 139Q426 115 433 100T459 81Q481 77 491 78T517 88Q528 95 534 99T546 109T559 119Q565 124 569 126T579 128Q588 127 596 118T607 102Q611 97 603 83T578 54T540 25ZM531 244Q540 248 553 258T576 281T586 301Q586 313 572 321T534
324Q525 322 513 312T490 290T470 267T461 251Q465 246 477 244T505 241T531 244ZM486 436Q477 444 472 458T468 478Q470 484 477 501T496 529Q500 532 504 537T513 543Q526 553 539 547T562 521Q572 501 568 488T545 451Q527 428 513 426T486 436ZM632 436Q623
444 618 458T614 478Q616 484 623 501T642 529Q646 532 650 537T659 543Q672 553 685 547T708 521Q718 501 714 488T691 451Q673 428 659 426T632 436Z" />
<glyph unicode="&#xec;" horiz-adv-x="187" d="M104 22Q96 30 93 44T90 73T95 96Q95 104 97 108T99 117Q98 121 101 131T107 150Q114 166 122 190T139 240T153 283T160 306Q160 318 176 319Q188 323 201 313T225 286Q233 278 231 264T218 226Q214 218 209 201T201
171Q197 163 192 149T182 121Q180 116 178 104T173 79T165 58Q156 17 139 10T104 22ZM500 431Q488 421 482 424T470 450Q465 464 454 482T433 518T418 551T420 577Q428 586 439 595T465 598Q473 595 483 580T502 543T519 501T530 466Q531 463 526 456T513 441T500
431Z" />
<glyph unicode="&#xed;" horiz-adv-x="187" d="M104 22Q96 30 93 44T90 73T95 96Q95 104 97 108T99 117Q98 121 101 131T107 150Q114 166 122 190T139 240T153 283T160 306Q160 318 176 319Q188 323 201 313T225 286Q233 278 231 264T218 226Q214 218 209 201T201
171Q197 163 192 149T182 121Q180 116 178 104T173 79T165 58Q156 17 139 10T104 22ZM493 438Q485 444 482 459T480 486Q481 491 493 506T524 540T559 574T588 592Q601 595 612 583T627 550Q628 540 618 529T593 505T561 480T536 454Q526 438 516 434T493 438Z"
/>
<glyph unicode="&#xee;" horiz-adv-x="187" d="M104 22Q96 30 93 44T90 73T95 96Q95 104 97 108T99 117Q98 121 101 131T107 150Q114 166 122 190T139 240T153 283T160 306Q160 318 176 319Q188 323 201 313T225 286Q233 278 231 264T218 226Q214 218 209 201T201
171Q197 163 192 149T182 121Q180 116 178 104T173 79T165 58Q156 17 139 10T104 22ZM424 446Q407 429 394 434T376 454T383 483Q386 487 397 498T424 522T456 548T482 566Q496 577 507 575T525 564Q537 554 554 537T587 504T604 486Q614 475 613 462T603 440T582
432T555 449Q548 458 532 473T501 502Q489 495 473 484T444 463T424 446Z" />
<glyph unicode="&#xef;" horiz-adv-x="187" d="M104 22Q96 30 93 44T90 73T95 96Q95 104 97 108T99 117Q98 121 101 131T107 150Q114 166 122 190T139 240T153 283T160 306Q160 318 176 319Q188 323 201 313T225 286Q233 278 231 264T218 226Q214 218 209 201T201
171Q197 163 192 149T182 121Q180 116 178 104T173 79T165 58Q156 17 139 10T104 22ZM402 436Q393 444 388 458T384 478Q386 484 393 501T412 529Q416 532 420 537T429 543Q442 553 455 547T478 521Q488 501 484 488T461 451Q443 428 429 426T402 436ZM548 436Q539
444 534 458T530 478Q532 484 539 501T558 529Q562 532 566 537T575 543Q588 553 601 547T624 521Q634 501 630 488T607 451Q589 428 575 426T548 436Z" />
<glyph unicode="&#xf0;" horiz-adv-x="349" d="M180 -1Q167 -3 160 1T141 15Q128 28 116 42T98 72T93 99Q96 108 94 115T92 122Q87 127 89 128T93 134Q99 135 97 146Q96 151 99 166T109 201T127 237Q132 247 142 264T166 298T192 326Q215 349 238 362T283 383Q305
388 311 388T333 374Q335 372 337 372Q334 419 321 463T270 559Q255 575 244 583T225 605Q225 608 233 616T251 632T267 640Q272 643 280 640T297 632T307 623Q311 627 320 615T349 577Q381 536 397 481T414 364T402 245T361 138Q339 100 316 79T265 37Q244 22
224 12T180 -1ZM262 123Q277 143 288 157T308 187T326 229Q328 240 330 256T331 287T324 304Q312 311 295 308T259 286Q228 258 211 222T173 136Q162 105 171 89T205 79T262 123ZM266 452Q254 449 245 452T228 459Q214 466 219 474T245 492Q261 507 284 516T347
535Q366 539 380 541T407 544T436 543Q456 537 456 526T447 510Q448 504 433 495T398 484Q389 482 365 475T315 462Q310 458 297 456T266 452Z" />
<glyph unicode="&#xf1;" horiz-adv-x="450" d="M700 31Q678 33 664 40T641 70Q637 86 637 103T637 137T640 163Q641 165 641 172T641 188Q639 204 633 207T612 204Q592 194 566 177T512 138T456 92Q434 68 426 54T407 40Q399 36 391 41T373 54Q366 62 358 73T347
88Q347 100 349 114T357 143T369 171Q373 176 376 184T386 203Q389 216 397 235T412 270Q424 295 430 313T439 354Q438 356 440 360T447 365V365H448Q455 371 472 368T498 354Q518 334 517 307T486 232Q479 216 473 204T466 187Q466 187 475 193T496 208T516 222Q521
227 538 240T575 268T607 288Q617 295 631 302T650 309Q659 309 673 302T699 284T713 265Q713 261 713 256T712 245Q713 230 713 208T713 165T708 131Q708 131 709 129T712 125Q711 123 711 121T712 119Q711 115 713 108T719 91T730 71Q733 58 724 47T700 31ZM437
420Q417 420 405 427T373 448Q364 453 349 468T322 483Q312 483 306 475T293 459T276 448Q275 443 270 436T263 433Q250 436 243 445T236 464Q237 473 252 498T301 541Q313 546 334 544T372 526Q395 505 410 496T444 494Q459 498 477 509T516 528Q523 531 529 526T540
511T543 496Q543 492 538 480T517 460Q487 443 471 435T448 423T437 420Z" />
<glyph unicode="&#xf2;" horiz-adv-x="353" d="M421 10Q408 10 401 15T382 29Q363 49 353 70T346 109Q349 117 349 124T348 132Q343 137 345 138T349 144Q355 144 353 155Q351 163 360 189T384 240Q390 250 402 266T428 299T455 326Q480 347 500 359T543 376Q565
381 583 381T617 365Q640 355 650 339T663 296Q666 266 658 224T609 125Q584 89 561 70T509 34Q488 20 466 16T421 10ZM521 126Q544 148 555 171T578 228Q582 235 583 250T584 279T576 295Q566 302 555 299T527 283Q497 258 472 224T433 141Q426 112 434 97T465
87T521 126ZM343 431Q331 421 325 424T313 450Q308 464 297 482T276 518T261 551T263 577Q271 586 282 595T308 598Q316 595 326 580T345 543T362 501T373 466Q374 463 369 456T356 441T343 431Z" />
<glyph unicode="&#xf3;" horiz-adv-x="353" d="M421 10Q408 10 401 15T382 29Q363 49 353 70T346 109Q349 117 349 124T348 132Q343 137 345 138T349 144Q355 144 353 155Q351 163 360 189T384 240Q390 250 402 266T428 299T455 326Q480 347 500 359T543 376Q565
381 583 381T617 365Q640 355 650 339T663 296Q666 266 658 224T609 125Q584 89 561 70T509 34Q488 20 466 16T421 10ZM521 126Q544 148 555 171T578 228Q582 235 583 250T584 279T576 295Q566 302 555 299T527 283Q497 258 472 224T433 141Q426 112 434 97T465
87T521 126ZM599 438Q591 444 588 459T586 486Q587 491 599 506T630 540T665 574T694 592Q707 595 718 583T733 550Q734 540 724 529T699 505T667 480T642 454Q632 438 622 434T599 438Z" />
<glyph unicode="&#xf4;" horiz-adv-x="353" d="M421 10Q408 10 401 15T382 29Q363 49 353 70T346 109Q349 117 349 124T348 132Q343 137 345 138T349 144Q355 144 353 155Q351 163 360 189T384 240Q390 250 402 266T428 299T455 326Q480 347 500 359T543 376Q565
381 583 381T617 365Q640 355 650 339T663 296Q666 266 658 224T609 125Q584 89 561 70T509 34Q488 20 466 16T421 10ZM521 126Q544 148 555 171T578 228Q582 235 583 250T584 279T576 295Q566 302 555 299T527 283Q497 258 472 224T433 141Q426 112 434 97T465
87T521 126ZM517 446Q500 429 487 434T469 454T476 483Q479 487 490 498T517 522T549 548T575 566Q589 577 600 575T618 564Q630 554 647 537T680 504T697 486Q707 475 706 462T696 440T675 432T648 449Q641 458 625 473T594 502Q582 495 566 484T537 463T517 446Z"
/>
<glyph unicode="&#xf5;" horiz-adv-x="353" d="M421 10Q408 10 401 15T382 29Q363 49 353 70T346 109Q349 117 349 124T348 132Q343 137 345 138T349 144Q355 144 353 155Q351 163 360 189T384 240Q390 250 402 266T428 299T455 326Q480 347 500 359T543 376Q565
381 583 381T617 365Q640 355 650 339T663 296Q666 266 658 224T609 125Q584 89 561 70T509 34Q488 20 466 16T421 10ZM521 126Q544 148 555 171T578 228Q582 235 583 250T584 279T576 295Q566 302 555 299T527 283Q497 258 472 224T433 141Q426 112 434 97T465
87T521 126ZM388 420Q368 420 356 427T324 448Q315 453 300 468T273 483Q263 483 257 475T244 459T227 448Q226 443 221 436T214 433Q201 436 194 445T187 464Q188 473 203 498T252 541Q264 546 285 544T323 526Q346 505 361 496T395 494Q410 498 428 509T467 528Q474
531 480 526T491 511T494 496Q494 492 489 480T468 460Q438 443 422 435T399 423T388 420Z" />
<glyph unicode="&#xf6;" horiz-adv-x="353" d="M421 10Q408 10 401 15T382 29Q363 49 353 70T346 109Q349 117 349 124T348 132Q343 137 345 138T349 144Q355 144 353 155Q351 163 360 189T384 240Q390 250 402 266T428 299T455 326Q480 347 500 359T543 376Q565
381 583 381T617 365Q640 355 650 339T663 296Q666 266 658 224T609 125Q584 89 561 70T509 34Q488 20 466 16T421 10ZM521 126Q544 148 555 171T578 228Q582 235 583 250T584 279T576 295Q566 302 555 299T527 283Q497 258 472 224T433 141Q426 112 434 97T465
87T521 126ZM245 436Q236 444 231 458T227 478Q229 484 236 501T255 529Q259 532 263 537T272 543Q285 553 298 547T321 521Q331 501 327 488T304 451Q286 428 272 426T245 436ZM391 436Q382 444 377 458T373 478Q375 484 382 501T401 529Q405 532 409 537T418
543Q431 553 444 547T467 521Q477 501 473 488T450 451Q432 428 418 426T391 436Z" />
<glyph unicode="&#xf7;" horiz-adv-x="446" d="M173 174Q167 174 158 174T138 179Q123 179 116 184T104 197Q93 212 104 219T153 231Q170 235 203 237T276 241T350 244T405 245Q431 245 447 241T475 226Q490 211 484 196T454 184Q449 184 436 183T408 181T381
179Q375 179 348 178T286 176T219 175T173 174ZM214 -6Q205 1 200 11T195 31T196 42Q205 49 214 67T228 98Q229 102 232 106T240 112Q252 120 270 112T298 88Q307 69 304 52T282 12Q267 -8 248 -12T214 -6ZM305 320Q296 327 291 337T285 357T287 367Q297 375 305
392T319 424Q320 427 323 432T331 438Q343 446 361 438T389 414Q398 395 395 378T373 338Q358 318 339 314T305 320Z" />
<glyph unicode="&#xf8;" horiz-adv-x="353" d="M69 -15Q50 -10 54 10T83 56Q139 110 192 167T313 272Q322 277 342 292T385 326T424 360T443 378Q448 391 457 385T471 367Q474 356 463 345Q460 338 456 334T441 322T408 298Q371 273 338 246T268 187Q255 176 234
156T189 113T142 67T104 28T85 6Q78 -7 76 -11T69 -15ZM277 130Q296 151 308 171T333 224Q337 235 339 252T342 284T335 302Q323 310 307 307T268 285Q248 268 234 250T207 207T180 147Q168 120 169 100T183 74T219 80T277 130ZM188 -1Q175 -2 168 2T148 14Q127
32 115 55T104 95Q106 103 105 110T104 118Q98 123 100 124T104 130Q111 131 106 141Q104 149 111 177T131 229Q137 240 147 257T170 293T194 321Q217 345 235 359T275 380Q295 387 311 387T344 372Q368 364 384 350T406 309Q412 279 408 240T369 141Q348 103 329
81T282 39Q263 23 237 13T188 -1Z" />
<glyph unicode="&#xf9;" horiz-adv-x="370" d="M337 2Q327 12 320 29T306 70Q304 78 304 89T304 107Q301 100 295 90T282 75Q278 71 264 60T236 41Q203 20 179 20T136 45Q120 58 111 76T108 123Q110 158 118 191T151 281Q172 322 183 344T197 370Q212 375 230
370T250 350Q256 340 250 314T225 252Q211 218 199 186T185 130T196 102Q205 97 224 104T269 141T322 237Q330 257 334 272T339 307Q337 319 343 331T362 350Q366 355 373 359T382 359L398 360Q402 361 406 353T415 341Q426 332 424 302T398 218Q379 177 373 156T365
115Q365 97 369 84T389 57Q400 50 401 36T402 10Q400 1 388 -3T362 -7T337 2ZM585 433Q573 423 567 426T555 452Q550 466 539 484T518 520T503 553T505 579Q513 588 524 597T550 600Q558 597 568 582T587 545T604 503T615 468Q616 465 611 458T598 443T585 433Z"
/>
<glyph unicode="&#xfa;" horiz-adv-x="370" d="M337 2Q327 12 320 29T306 70Q304 78 304 89T304 107Q301 100 295 90T282 75Q278 71 264 60T236 41Q203 20 179 20T136 45Q120 58 111 76T108 123Q110 158 118 191T151 281Q172 322 183 344T197 370Q212 375 230
370T250 350Q256 340 250 314T225 252Q211 218 199 186T185 130T196 102Q205 97 224 104T269 141T322 237Q330 257 334 272T339 307Q337 319 343 331T362 350Q366 355 373 359T382 359L398 360Q402 361 406 353T415 341Q426 332 424 302T398 218Q379 177 373 156T365
115Q365 97 369 84T389 57Q400 50 401 36T402 10Q400 1 388 -3T362 -7T337 2ZM564 691Q556 697 553 712T551 739Q552 744 564 759T595 793T630 827T659 845Q672 848 683 836T698 803Q699 793 689 782T664 758T632 733T607 707Q597 691 587 687T564 691Z" />
<glyph unicode="&#xfb;" horiz-adv-x="370" d="M337 2Q327 12 320 29T306 70Q304 78 304 89T304 107Q301 100 295 90T282 75Q278 71 264 60T236 41Q203 20 179 20T136 45Q120 58 111 76T108 123Q110 158 118 191T151 281Q172 322 183 344T197 370Q212 375 230
370T250 350Q256 340 250 314T225 252Q211 218 199 186T185 130T196 102Q205 97 224 104T269 141T322 237Q330 257 334 272T339 307Q337 319 343 331T362 350Q366 355 373 359T382 359L398 360Q402 361 406 353T415 341Q426 332 424 302T398 218Q379 177 373 156T365
115Q365 97 369 84T389 57Q400 50 401 36T402 10Q400 1 388 -3T362 -7T337 2ZM271 446Q254 429 241 434T223 454T230 483Q233 487 244 498T271 522T303 548T329 566Q343 577 354 575T372 564Q384 554 401 537T434 504T451 486Q461 475 460 462T450 440T429 432T402
449Q395 458 379 473T348 502Q336 495 320 484T291 463T271 446Z" />
<glyph unicode="&#xfc;" horiz-adv-x="370" d="M337 2Q327 12 320 29T306 70Q304 78 304 89T304 107Q301 100 295 90T282 75Q278 71 264 60T236 41Q203 20 179 20T136 45Q120 58 111 76T108 123Q110 158 118 191T151 281Q172 322 183 344T197 370Q212 375 230
370T250 350Q256 340 250 314T225 252Q211 218 199 186T185 130T196 102Q205 97 224 104T269 141T322 237Q330 257 334 272T339 307Q337 319 343 331T362 350Q366 355 373 359T382 359L398 360Q402 361 406 353T415 341Q426 332 424 302T398 218Q379 177 373 156T365
115Q365 97 369 84T389 57Q400 50 401 36T402 10Q400 1 388 -3T362 -7T337 2ZM255 436Q246 444 241 458T237 478Q239 484 246 501T265 529Q269 532 273 537T282 543Q295 553 308 547T331 521Q341 501 337 488T314 451Q296 428 282 426T255 436ZM401 436Q392 444
387 458T383 478Q385 484 392 501T411 529Q415 532 419 537T428 543Q441 553 454 547T477 521Q487 501 483 488T460 451Q442 428 428 426T401 436Z" />
<glyph unicode="&#xfd;" horiz-adv-x="341" d="M84 -205Q52 -212 21 -208T-33 -190T-60 -161Q-64 -144 -55 -134T-32 -122T-14 -126Q-6 -131 12 -140T57 -144Q80 -139 99 -121T133 -83Q141 -71 160 -40T199 28T234 98Q237 106 241 117T251 135Q257 147 261 157T267
172Q268 177 276 192T291 222Q296 237 306 266T326 313Q338 336 345 350T362 368V368V368Q371 375 377 375T395 369Q407 357 413 346T417 318T399 273Q391 249 382 230T367 204Q362 192 356 178T344 151Q326 111 313 86T290 40T269 -9Q246 -46 225 -79T179 -142Q169
-151 152 -164T116 -190T84 -205ZM212 26Q197 28 181 45T154 81T145 109Q145 114 145 117T145 120Q139 120 136 136T130 179T128 233T131 286Q135 303 135 323T136 356Q135 372 141 380T151 392V392V392Q185 407 199 376T209 273Q207 233 208 196T216 131T241 92Q248
88 247 77T240 54T226 34T212 26ZM558 438Q550 444 547 459T545 486Q546 491 558 506T589 540T624 574T653 592Q666 595 677 583T692 550Q693 540 683 529T658 505T626 480T601 454Q591 438 581 434T558 438Z" />
<glyph unicode="&#xfe;" horiz-adv-x="378" d="M66 -230Q62 -230 55 -230T43 -221Q39 -216 35 -201T35 -165Q39 -148 42 -133T46 -109Q46 -101 48 -91T51 -76Q56 -68 59 -54T62 -27Q62 -22 65 -16T74 -6Q74 2 77 14T81 31Q83 43 92 71T113 135T137 208T161 275T178
322L182 331L249 309Q296 335 331 337T389 325T424 285T436 233Q436 222 429 204T413 169T397 146Q393 146 389 140T381 125Q372 115 354 103T319 83T293 79Q293 79 291 79T288 73Q288 68 273 62T238 51T202 46Q190 46 184 47T173 54Q170 52 168 48T166 39Q165
33 161 20T150 -5T140 -17Q140 -17 138 -20T140 -28Q140 -28 140 -40T134 -59Q134 -67 131 -83T124 -107Q124 -120 121 -131T112 -142Q107 -143 107 -156T106 -175Q103 -199 92 -214T66 -230ZM193 114Q199 114 221 120T267 137T305 159Q335 184 348 209T346 258Q338
271 322 271T284 258T233 220Q221 207 211 190T195 155T187 126T193 114ZM175 316Q182 331 195 364T223 438T251 517T273 582T283 613Q284 619 286 624T299 637Q302 640 308 641T318 643Q318 643 327 641T344 630Q352 619 354 607T355 578Q352 570 345 549T323
488T281 384L247 294L175 316Z" />
<glyph unicode="&#xff;" horiz-adv-x="341" d="M84 -205Q52 -212 21 -208T-33 -190T-60 -161Q-64 -144 -55 -134T-32 -122T-14 -126Q-6 -131 12 -140T57 -144Q80 -139 99 -121T133 -83Q141 -71 160 -40T199 28T234 98Q237 106 241 117T251 135Q257 147 261 157T267
172Q268 177 276 192T291 222Q296 237 306 266T326 313Q338 336 345 350T362 368V368V368Q371 375 377 375T395 369Q407 357 413 346T417 318T399 273Q391 249 382 230T367 204Q362 192 356 178T344 151Q326 111 313 86T290 40T269 -9Q246 -46 225 -79T179 -142Q169
-151 152 -164T116 -190T84 -205ZM212 26Q197 28 181 45T154 81T145 109Q145 114 145 117T145 120Q139 120 136 136T130 179T128 233T131 286Q135 303 135 323T136 356Q135 372 141 380T151 392V392V392Q185 407 199 376T209 273Q207 233 208 196T216 131T241 92Q248
88 247 77T240 54T226 34T212 26ZM460 436Q451 444 446 458T442 478Q444 484 451 501T470 529Q474 532 478 537T487 543Q500 553 513 547T536 521Q546 501 542 488T519 451Q501 428 487 426T460 436ZM606 436Q597 444 592 458T588 478Q590 484 597 501T616 529Q620
532 624 537T633 543Q646 553 659 547T682 521Q692 501 688 488T665 451Q647 428 633 426T606 436Z" />
<glyph unicode="&#x2013;" horiz-adv-x="446" d="M173 174Q167 174 158 174T138 179Q123 179 116 184T104 197Q93 212 104 219T153 231Q170 235 203 237T276 241T350 244T405 245Q431 245 447 241T475 226Q490 211 484 196T454 184Q449 184 436 183T408 181T381
179Q375 179 348 178T286 176T219 175T173 174Z" />
<glyph unicode="&#x2014;" horiz-adv-x="566" d="M173 175Q167 175 158 175T138 180Q123 180 116 185T104 197Q93 212 104 219T153 230Q167 233 204 235T292 239T393 242T484 243T540 244Q566 244 575 241T595 226Q610 211 604 196T574 185Q567 184 551 183T516
180Q512 180 489 180T429 179T353 178T275 177T210 176T173 175Z" />
<glyph unicode="&#x2018;" horiz-adv-x="117" d="M197 444Q181 455 172 472T166 502Q169 525 176 545T190 584Q196 607 213 630T247 672Q246 676 253 677T271 682Q282 683 292 682T307 667Q309 660 306 655T297 641Q285 622 270 597T249 556Q249 552 248 549Q265
552 283 537Q302 519 294 493T260 449Q242 438 229 438T197 444Z" />
<glyph unicode="&#x2019;" horiz-adv-x="117" d="M217 438Q207 437 197 438T181 453Q180 460 183 466T191 479Q203 499 218 524T239 564Q239 568 240 571Q223 568 205 583Q186 601 194 627T228 671Q246 682 259 683T291 676Q308 666 317 648T322 617Q319 594 312
574T298 535Q292 513 275 491T241 448Q242 444 235 443T217 438Z" />
<glyph unicode="&#x201a;" horiz-adv-x="117" d="M44 -109Q34 -110 23 -109T8 -94Q7 -87 10 -81T18 -68Q30 -48 45 -23T66 17Q66 21 67 24Q50 21 32 36Q13 54 21 80T55 124Q73 135 86 136T118 129Q135 119 144 102T149 71Q146 48 139 28T125 -11Q119 -33 102 -56T68
-99Q69 -103 62 -104T44 -109Z" />
<glyph unicode="&#x201c;" horiz-adv-x="267" d="M368 445Q352 456 343 473T337 503Q340 526 347 546T361 585Q367 608 384 631T418 673Q417 677 424 678T442 683Q453 684 463 683T478 668Q480 661 477 656T468 642Q456 623 441 598T420 557Q420 553 419 550Q436
553 454 538Q473 520 465 494T431 450Q413 439 400 439T368 445ZM199 445Q183 456 174 473T168 503Q171 526 178 546T192 585Q198 608 215 631T249 673Q248 677 255 678T273 683Q284 684 294 683T309 668Q311 661 308 656T299 642Q287 623 272 598T251 557Q251
553 250 550Q267 553 285 538Q304 520 296 494T262 450Q244 439 231 439T199 445Z" />
<glyph unicode="&#x201d;" horiz-adv-x="267" d="M210 432Q200 431 190 431T174 447Q173 454 176 460T184 473Q196 493 211 518T232 558Q232 562 233 565Q216 562 198 577Q179 595 187 621T221 665Q239 676 252 677T284 670Q301 660 310 642T315 611Q312 588 305
568T291 529Q285 507 268 485T234 442Q235 438 228 437T210 432ZM379 432Q369 431 358 431T343 447Q342 454 345 460T353 473Q365 493 380 518T401 558Q401 562 402 565Q385 562 367 577Q348 595 356 621T390 665Q408 676 421 677T453 670Q470 660 479 642T484
611Q481 588 474 568T460 529Q454 507 437 485T403 442Q404 438 397 437T379 432Z" />
<glyph unicode="&#x201e;" horiz-adv-x="267" d="M49 -109Q39 -110 29 -109T13 -94Q12 -87 15 -81T23 -68Q35 -48 50 -23T71 17Q71 21 72 24Q55 21 37 36Q18 54 26 80T60 124Q78 135 91 136T123 129Q140 119 149 102T154 71Q151 48 144 28T130 -11Q124 -33 107
-56T73 -99Q74 -103 67 -104T49 -109ZM218 -109Q208 -110 197 -109T182 -94Q181 -87 184 -81T192 -68Q204 -48 219 -23T240 17Q240 21 241 24Q224 21 206 36Q187 54 195 80T229 124Q247 135 260 136T292 129Q309 119 318 102T323 71Q320 48 313 28T299 -11Q293
-33 276 -56T242 -99Q243 -103 236 -104T218 -109Z" />
<glyph unicode="&#x2022;" horiz-adv-x="187" d="M147 225Q141 230 140 244T138 271T140 288Q146 308 160 333T193 371Q209 379 235 373T272 350Q279 318 273 291T237 231Q223 213 200 212T147 225Z" />
<glyph unicode="&#x2039;" horiz-adv-x="446" d="M406 -3Q398 -4 379 -4T328 11Q292 30 275 39T242 67Q208 87 190 108T154 160L125 202L118 237Q126 239 134 251T144 264Q153 275 166 287T202 317T259 366Q296 393 309 407T333 431Q339 438 347 445T359 453Q365
455 371 453T382 447Q393 440 403 438T414 427Q414 427 412 414T402 395Q389 384 374 373T337 343T275 289Q251 268 238 254T220 229T217 205Q223 192 237 173T279 132T353 84Q378 72 395 53T417 18T406 -3Z" />
<glyph unicode="&#x203a;" horiz-adv-x="446" d="M241 -10Q235 -12 227 -7T214 2Q204 10 194 10T181 19Q181 19 183 27T193 41Q207 53 220 64T255 94T315 148Q350 180 370 201T388 242Q379 262 348 295T247 368Q223 380 204 397T179 429T189 448Q197 449 222 449T278
436Q314 417 331 408T364 380Q398 361 417 339T452 287L476 245L483 215Q478 214 473 207T463 192T457 184Q448 173 435 160T399 127T341 77Q304 50 291 36T267 12Q261 5 254 -2T241 -10Z" />
</font>
</defs>
</svg>
